[TR24][SA][OF] Geminiani, Pergolesi, Vivaldi, Durante - Concerts & Follies in Pergolesi's Time (I Musici) - 2009 (Classical)


Статистика раздачи [Обновить пиров]
Размер:  1.02 GB   |    Зарегистрирован:  8 месяцев 18 дней   |    Скачан:  0 раз

Полного источника не было: Никогда

 
   
 
 
 

[Цитировать]

Geminiani, Pergolesi, Vivaldi, Durante - Concerts & Follies in Pergolesi's Time (I Musici)
Год издания: 2009
Жанр: Classical
Издатель (лейбл): Fonè Records
Продолжительность: 00:59:03
Наличие сканов: да
Исполнители:
I Musici

Треклист:

Francesco Geminiani
01. Concerto Grosso #12 La Follia for strings & harpsichord (11:25)
Giovanni Battista Pergolesi
Concerto for violin, strings & basso continuo in B flat major
02. Allegro (04:35)
03. Adagio (03:53)
04. Allegro (03:46)
Antonio Vivaldi
Concerto for 2 cellos, strings & continuo in G minor, RV531
05. Allegro (03:15)
06. Largo (03:30)
07. Allegro (02:57)
Concerto for violin, strings & continuo Gross Mogul, RV208
08. Allegro (05:19)
09. Grave, recitativo (02:32)
10. Allegro (06:31)
Francesco Durante
Concerto for Strings #8 in A major La Pazzia
11. Allegro (06:36)
12. Affettuoso (02:03)
13. Allego (02:41)
-Контейнер: FLAC (*.flac)
Тип рипа: tracks
Разрядность: 24bit / 88,2kHz
Количество каналов: 2.0-

Динамический диапазон - DR

foobar2000 1.3.2 / Замер динамического диапазона (DR) 1.1.1
Дата отчёта: 2015-08-31 10:36:58
--------------------------------------------------------------------------------
Анализ: I Musici / Concerts & Follies in Pergolesi's Time
--------------------------------------------------------------------------------
DR Пики RMS Продолжительность трека
--------------------------------------------------------------------------------
DR14 -0.37 дБ -19.04 дБ 11:25 01-Geminiani - Concerto Grosso #12 La Follia for strings & harpsichord
DR14 -3.90 дБ -20.80 дБ 4:35 02-Pergolesi - Concerto for violin, strings & basso continuo in B flat major - Allegro
DR13 -7.82 дБ -25.93 дБ 3:53 03-Adagio
DR15 -2.85 дБ -22.25 дБ 3:46 04-Allegro
DR13 -0.79 дБ -18.73 дБ 3:15 05-Vivaldi - Concerto for 2 cellos, strings & continuo in G minor, RV531 - Allegro
DR11 -7.77 дБ -24.51 дБ 3:30 06-Largo
DR11 -3.11 дБ -17.91 дБ 2:57 07-Allegro
DR14 -0.69 дБ -19.44 дБ 5:19 08-Concerto for violin, strings & continuo Gross Mogul, RV208 - Allegro
DR13 -6.75 дБ -27.04 дБ 2:32 09-Grave, recitativo
DR14 -1.79 дБ -21.92 дБ 6:31 10-Allegro
DR15 -1.27 дБ -21.74 дБ 6:36 11-Durante - Concerto for Strings #8 in A major La Pazzia - Allegro
DR11 -8.87 дБ -24.30 дБ 2:03 12-Affettuoso
DR12 -3.70 дБ -19.48 дБ 2:41 13-Allego
--------------------------------------------------------------------------------
Количество треков: 13
Реальные значения DR: DR13
Частота: 88200 Гц
Каналов: 2
Разрядность: 24
Битрейт: 2471 кбит/с
Кодек: FLAC
================================================================================
[teatrix.ru].t22156.torrent 
Торрент: Зарегистрирован [ 2016-03-20 12:42 ] · 7B5841549845D90A8F2369A754351ADB7EF08E38

Скачать .torrent

Скачать

12 KB

Статус: проверено
Скачан: 0 раз
Размер: 1.02 GB
terms.php



Быстрый ответ

Имя:

      
Для отправки сообщений необходимо включить JavaScript
Показать сообщения:    

Текущее время: 07-Дек 19:22

Часовой пояс: UTC + 3


Вы можете начинать темы
Вы можете отвечать на сообщения
Вы не можете редактировать свои сообщения
Вы не можете удалять свои сообщения
Вы не можете голосовать в опросах
Вы не можете прикреплять файлы к сообщениям
Вы можете скачивать файлы