Команданте / Comandante (Оливер Стоун / Oliver Stone) [2003, документальный, DVDRip] MVO (OPT)


Статистика раздачи [Обновить пиров]
Размер:  1.46 GB   |    Зарегистрирован:  8 месяцев 21 день   |    Скачан:  2 раза

Полного источника не было: 3 дня

 
   
 
 
 

[Цитировать]

Команданте / Comandante- Дата/Год выпуска: 2003
Страна: США, Испания
Жанр: документальный
Продолжительность: 01:34:55
Перевод: Профессиональный (многоголосый закадровый) ОРТ
Русские субтитры: нет
Оригинальная аудиодорожка: нет
Режиссер: Оливер Стоун / Oliver Stone
В ролях: Фидель Кастро / Fidel Castro, Оливер Стоун / Oliver Stone, Хуанита Вера / Juanita Vera
Дата мировой премьеры: 6 июня 2003 (Испания)

Описание: Документальная картина о кубинском лидере Фиделе Кастро, снятая в 2003 году. Оливер Стоун выступил в качестве режиссера, автора сценария и героя картины, наряду с Кастро.
Стоун познакомился с Кастро в 1987 году на съемках фильма Сальвадор.
Спустя почти 15 лет они встретились вновь — чтобы совместными усилиями снять фильм.
Сам Стоун назвал Кастро «одним из наиболее разумных людей на Земле и одним из тех, с кем нам следует советоваться». Фильм «Команданте» в мае 2003 года был запрещен к показу в США. В этом году картина отмечена на Международном фестивале независимого кино в Сандэнсе и вошла в программу «Панорама» Берлинского кинофестваля. Единственный показ фильма Оливера Стоуна «Команданте» состоялся в 2003 году в Санкт-Петербургском Доме кино.
Фильм про Фиделя Кастро Ольвер Стоун делал по заказу компании NBO, но первый вариант Команданте / Comandante (2003) их не устроил по причине положительного образа Фиделя Кастро.
И Стоун полетел снимать опять, на этот раз с диссидентами. Это уже В поисках Фиделя /Looking for Fidel (2004)
Перевод ОРТ предоставил IPAAT. Запись была сделана еще на VHS, но, думаю, это лучше, чем ничего. Единственное, там было две дырочки в несколько секунд (не успел нажать на кнопку REC в самом начале и неаккуратно вырезалась реклама в середине), так IPAAT добавил фразы из любительского перевода. Звуковая дорожка полностью синхронизирована с видео.
Сэмпл: http://sendfile.su/1150531
качество: DVDRip
формат: AVI
Видео: XVID, 640x480, 4:3, 1999 kbps, 25,000 fps
Аудио: Russian (Dolby AC3, 2 ch) 192 Kbps, 48.0 KHz

MediaInfo

Общее
Полное имя : D:\временные файлы\Comandante (2003) DVDRip.avi
Формат : AVI
Формат/Информация : Audio Video Interleave
Размер файла : 1,46 Гбайт
Продолжительность : 1 ч. 34 м.
Общий поток : 2201 Кбит/сек
Программа кодирования : VirtualDubMod 1.5.10.2 (build 2540/release)
Библиотека кодирования : VirtualDubMod build 2540/release
Видео
Идентификатор : 0
Формат : MPEG-4 Visual
Профиль формата : Advanced Simple@L5
Параметр BVOP формата : 1
Параметр QPel формата : Нет
Параметр GMC формата : Без точки перехода
Параметр матрицы формата : Default (MPEG)
Идентификатор кодека : XVID
Идентификатор кодека/Подсказка : XviD
Продолжительность : 1 ч. 34 м.
Битрейт : 1999 Кбит/сек
Ширина : 640 пикселей
Высота : 480 пикселей
Соотношение сторон : 4:3
Частота кадров : 25,000 кадров/сек
Цветовое пространство : YUV
Субдискретизация насыщенности : 4:2:0
Битовая глубина : 8 бит
Тип развёртки : Прогрессивная
Метод сжатия : С потерями
Бит/(Пиксели*Кадры) : 0.260
Размер потока : 1,33 Гбайт (91%)
Библиотека кодирования : XviD 1.2.1 (UTC 2008-12-04)
Аудио
Идентификатор : 1
Формат : AC-3
Формат/Информация : Audio Coding 3
Расширение режима : CM (complete main)
Параметр Endianness формата : Big
Идентификатор кодека : 2000
Продолжительность : 1 ч. 34 м.
Вид битрейта : Постоянный
Битрейт : 192 Кбит/сек
Каналы : 2 канала
Расположение каналов : Front: L R
Частота : 48,0 КГц
Метод сжатия : С потерями
Размер потока : 130 Мбайт (9%)
Выравнивание : Разделение по промежуткам
Продолжительность промежутка : 40 мс. (1,00 видеокадр)
Время предзагрузки промежутка : 500 мс.

Скриншоты

[teatrix.ru].t22158.torrent 
Торрент: Зарегистрирован [ 2016-03-20 12:42 ] · 40C12C4D53D789D3C8AB82FC4514256A34B4C8C7

Скачать .torrent

Скачать

15 KB

Статус: проверено
Скачан: 2 раз
Размер: 1.46 GB
terms.php



Быстрый ответ

Имя:

      
Для отправки сообщений необходимо включить JavaScript
Показать сообщения:    

Текущее время: 10-Дек 21:36

Часовой пояс: UTC + 3


Вы можете начинать темы
Вы можете отвечать на сообщения
Вы не можете редактировать свои сообщения
Вы не можете удалять свои сообщения
Вы не можете голосовать в опросах
Вы не можете прикреплять файлы к сообщениям
Вы можете скачивать файлы