История фильма: Кипящая жизнь / Story of movie: Zile Fierbinti (Цуй / Tsoui) [2008, Китай, документальный, DVDRip-AVC] VO


Статистика раздачи [Обновить пиров]
Размер:  340 MB   |    Зарегистрирован:  8 месяцев 17 дней   |    Скачан:  0 раз

Полного источника не было: Никогда

 
   
 
 
 

[Цитировать]

История фильма: Кипящая жизнь / Story of movie: Zile Fierbinti
Год выпуска: 2008
Страна: Китай
Жанр: Документальный
Режиссер: Цуй / Tsoui
Производство: Legendary
Продолжительность: 00:35:30
Перевод: Одноголосый закадровый
Оригинальная аудиодорожка: китайский (континентальный)
Описание: Документальный фильм, посвященный румынской киноленте С. Николаеску "Кипящие дни" (рум. Zile Fierbinti), в китайском прокате "Кипящая жизнь". Участники китайского дубляжа делятся своими впечатлениями о фильме. Актеры и режиссер рассказывают о производстве фильма и атмосфере, которая царила на съемочной площадке.
Доп. информация: Фильм сопровождается китайским хардсабом. Всплывающие пояснения: имена, названия локаций, надписи и прочее, появляются с наложенными поверх видео титрами на русском языке.
Сэмпл: https://yadi.sk/d/5utRqJKHiq9RS
Качество: DVDRip-AVC
формат: MKV
Видео AVC, 600x480, 5:4, 1600 Kbps, 25 fps
Аудио: AC-3, 128 Kbps, 44.1 KHz, 2 channels
Аудио 2: AC-3, 128 Kbps, 44.1 KHz, 2 channels

MediaInfo

General
Unique ID : 209254472952068501353191523063252914142 (0x9D6CF20F45B0FBF7B3AC98AC1B800FDE)
Complete name : D:...
Format : Matroska
Format version : Version 4 / Version 2
File size : 340 MiB
Duration : 35mn 30s
Overall bit rate mode : Variable
Overall bit rate : 1 337 Kbps
Encoded date : UTC 2015-08-25 13:08:23
Writing application : mkvmerge v6.0.0 ('Coming Up For Air') built on Jan 20 2013 09:52:00
Writing library : libebml v1.3.0 + libmatroska v1.4.0
Video
ID : 1
Format : AVC
Format/Info : Advanced Video Codec
Format profile : Main@L3.0
Format settings, CABAC : Yes
Format settings, ReFrames : 3 frames
Codec ID : V_MPEG4/ISO/AVC
Duration : 35mn 30s
Bit rate mode : Variable
Bit rate : 1 054 Kbps
Maximum bit rate : 1 600 Kbps
Width : 600 pixels
Height : 480 pixels
Display aspect ratio : 5:4
Frame rate mode : Constant
Frame rate : 25.000 fps
Standard : NTSC
Color space : YUV
Chroma subsampling : 4:2:0
Bit depth : 8 bits
Scan type : Progressive
Bits/(Pixel*Frame) : 0.146
Stream size : 268 MiB (79%)
Language : English
Default : Yes
Forced : No
Audio #1
ID : 2
Format : AC-3
Format/Info : Audio Coding 3
Mode extension : CM (complete main)
Format settings, Endianness : Big
Codec ID : A_AC3
Duration : 35mn 30s
Bit rate mode : Constant
Bit rate : 128 Kbps
Channel(s) : 2 channels
Channel positions : Front: L R
Sampling rate : 44.1 KHz
Bit depth : 16 bits
Compression mode : Lossy
Stream size : 32.5 MiB (10%)
Language : Russian
Default : Yes
Forced : No
Audio #2
ID : 3
Format : AC-3
Format/Info : Audio Coding 3
Mode extension : CM (complete main)
Format settings, Endianness : Big
Codec ID : A_AC3
Duration : 35mn 30s
Bit rate mode : Constant
Bit rate : 128 Kbps
Channel(s) : 2 channels
Channel positions : Front: L R
Sampling rate : 44.1 KHz
Bit depth : 16 bits
Compression mode : Lossy
Stream size : 32.5 MiB (10%)
Language : Chinese
Default : No
Forced : No

Скриншоты

[teatrix.ru].t22159.torrent 
Торрент: Зарегистрирован [ 2016-03-20 12:42 ] · C2563C52CA6BBA3D5B1392735BCCEFFFAF5EDE32

Скачать .torrent

Скачать

14 KB

Статус: проверено
Скачан: 0 раз
Размер: 340 MB
terms.php



Показать сообщения:    

Текущее время: 06-Дек 17:08

Часовой пояс: UTC + 3


Вы не можете начинать темы
Вы не можете отвечать на сообщения
Вы не можете редактировать свои сообщения
Вы не можете удалять свои сообщения
Вы не можете голосовать в опросах
Вы не можете прикреплять файлы к сообщениям
Вы можете скачивать файлы