(Classical) Wolfgang Amadeus Mozart — String Quintets № 3, 4 (K 515, 516) (Fine Arts Quartet & J. Dupouy) — 2013, APE (image+.cue) lossless


 

[Цитировать]

String Quintets № 3, 4 (K 515, 516)-
Жанр: Classical
Страна-производитель диска: Швейцария
Год издания диска: 2013
Год записи фонограммы: 1986
Издатель (лейбл): Lodia Music
Номер по каталогу: LO-CD 7703
Композитор: Wolfgang Amadeus Mozart
Исполнительский коллектив: Fine Arts Quartet & J. Dupouy
Аудио кодек: ape
Тип рипа: image+.cue
Битрейт аудио: lossless
Продолжительность: 01h06'24"
Источник: intoclassics
Наличие сканов в содержимом раздачи: нет-Треклист:
String Quintet № 3 C-Dur K 515
01. I. Allegro [09'30"]
02. II. Andante [10'26"]
03. III. Menuetto: Allegretto [05'53"]
04. IV. Allegro [07'30"]
String Quintet № 4 g-moll K 516
05. I. Allegro [07'55"]
06. II. Menuetto: Allegretto [05'44"]
07. III. Adagio ma non troppo [09'22"]
08. IV. Adadio. Allegro [10'04"]-

CUE

REM GENRE "Classical"
PERFORMER "Mozart"
TITLE "String Quintets K 515, 516"
FILE "String Quintets K 515, 516.ape" WAVE
TRACK 01 AUDIO
PERFORMER "Mozart"
TITLE "String Quintet 3 C K 515 - I. Allegro"
INDEX 01 00:00:00
TRACK 02 AUDIO
PERFORMER "Mozart"
TITLE "String Quintet 3 C K 515 - II. Andante"
INDEX 01 09:30:20
TRACK 03 AUDIO
PERFORMER "Mozart"
TITLE "String Quintet 3 C K 515 - III. Menuetto: Allegretto"
INDEX 01 19:56:20
TRACK 04 AUDIO
PERFORMER "Mozart"
TITLE "String Quintet 3 C K 515 - IV. Allegro"
INDEX 01 25:48:72
TRACK 05 AUDIO
PERFORMER "Mozart"
TITLE "String Quintet 4 g K 516 - I. Allegro"
INDEX 01 33:19:32
TRACK 06 AUDIO
PERFORMER "Mozart"
TITLE "String Quintet 4 g K 516 - II. Menuetto: Allegretto"
INDEX 01 41:14:10
TRACK 07 AUDIO
PERFORMER "Mozart"
TITLE "String Quintet 4 g K 516 - III. Adagio ma non troppo"
INDEX 01 46:57:57
TRACK 08 AUDIO
PERFORMER "Mozart"
TITLE "String Quintet 4 g K 516 - IV. Adagio. Allegro"
INDEX 01 56:19:45
-

auCDtect log

-----------------------
[br]
DON'T MODIFY THIS FILE
[br]
-----------------------
[br]
PERFORMER: auCDtect Task Manager, ver. 1.5.1RC4 build 1.5.1.5
Copyright (c) 2008-2010 y-soft. All rights reserved
http://y-soft.org
[br]
ANALYZER: auCDtect: CD records authenticity detector, version 0.8.2
Copyright (c) 2004 Oleg Berngardt. All rights reserved.
Copyright (c) 2004 Alexander Djourik. All rights reserved.
[br]
FILE: String Quintets K 515, 516.wav
Size: 702782348 Hash: 82887CC21263E3C59EF46766C907650E Accuracy: -m0
Conclusion: CDDA 100%
Signature: EB98707CFB50FD04C3A6C76F971AF3F2E1AFAD32
-

Spectrogram

-



Показать сообщения:    

Текущее время: 08-Дек 12:58

Часовой пояс: UTC + 3


Вы не можете начинать темы
Вы не можете отвечать на сообщения
Вы не можете редактировать свои сообщения
Вы не можете удалять свои сообщения
Вы не можете голосовать в опросах
Вы не можете прикреплять файлы к сообщениям
Вы не можете скачивать файлы