(Classical) Ensemble Renaissance · anthology (Anonymous, F. Landini, M. d’Arras, A. de la Halle, N. von Reuental, J.-B. Besard, O. Vecchi, J. Dowland, T. Hume, T. Susato, M. Praetorius) · 1997, FLAC (tracks+.cue) lossless


 

[Цитировать]

Ensemble Renaissance
anthology

Жанр: classical
Страна-производитель диска: Germany
Год издания диска: 1997
Издатель: artelier music (al segno)
Номер по каталогу: as 2015 2
Дата записи: 1983–1985
Аудиокодек: FLAC
Тип рипа: tracks+.cue
Битрейт аудио: lossless
Продолжительность: 01:53:44
Источник: скачано с what.cd
Буклет в содержимом раздачи есть
Исполнители: Ensemble Renaissance
Авторы:
Hommage à l’Amour (CD 1): Anonymous (1–4, 6, 10–20), Francesco Landini (5), Moniot d’Arras (7), Adam de la Halle (8), Neidhart von Reuental (9)
Mon Amy (CD 2): Anonymous (1–2, 4–7, 10, 12–13, 15–16, 18, 20), Cancionero de Palacio (3), Jean-Baptiste Besard (8–9), Orazio Vecchi (11), John Dowland (14, 19), Tobias Hume (17), Tielman Susato (21–23, 25), Michael Praetorius (24)

Hommage à l’Amour

01. Mihi confer venditor (2:22)
02. O admirabile Veneris ydolum (1:30)
03. Tempus est iocundum (1:36)
04. Veris dulcis in tempore (1:38)
05. Ecco la primavera (1:47)
06. Souvent souspire (3:44)
07. Ce fut en Mai (2:06)
08. Tant con je vivrai (3:01)
09. Maienzit (2:28)
10. Como poden (2:44)
11. Stella splendens (2:10)
12. Serbian traveller melodies (4:27)
13. Oxford estampie (1:45)
14. Bagpipe tune (1:17)
15. Trotto (2:19)
16. Manfredina e rotta (3:22)
17. Saltarello 2 (1:36)
18. Saltarello 3 (1:24)
19. Lamento di Tristano e rotta (3:23)
20. Ghaetta (6:23)
Продолжительность: 00:51:02

Лог создания рипа

Exact Audio Copy V1.0 beta 3 from 29. August 2011
EAC extraction logfile from 12. June 2012, 15:29
Ensemble Renaissance / 1 - Hommage a L'Amour
Used drive : HL-DT-STRW/DVD GCC-4241N Adapter: 1 ID: 0
Read mode : Secure
Utilize accurate stream : Yes
Defeat audio cache : Yes
Make use of C2 pointers : No
Read offset correction : 102
Overread into Lead-In and Lead-Out : No
Fill up missing offset samples with silence : Yes
Delete leading and trailing silent blocks : No
Null samples used in CRC calculations : Yes
Used interface : Native Win32 interface for Win NT & 2000
Gap handling : Appended to previous track
Used output format : User Defined Encoder
Selected bitrate : 1024 kBit/s
Quality : High
Add ID3 tag : No
Command line compressor : C:\Program Files\Exact Audio Copy\Flac\flac.exe
Additional command line options : -8 -V -T "ARTIST=%artist%" -T "TITLE=%title%" -T "ALBUM=%albumtitle%" -T "DATE=%year%" -T "TRACKNUMBER=%tracknr%" -T "GENRE=%genre%" -T "PERFORMER=%albuminterpret%" -T "COMPOSER=%composer%" %haslyrics%--tag-from-file=LYRICS="%lyricsfile%"%haslyrics% -T "ALBUMARTIST=%albumartist%" -T "DISCNUMBER=%cdnumber%" -T "TOTALDISCS=%totalcds%" -T "TOTALTRACKS=%numtracks%" -T "COMMENT=%comment%" %source% -o %dest%
TOC of the extracted CD
Track | Start | Length | Start sector | End sector
---------------------------------------------------------
1 | 0:00.00 | 2:21.50 | 0 | 10624
2 | 2:21.50 | 1:29.72 | 10625 | 17371
3 | 3:51.47 | 1:36.13 | 17372 | 24584
4 | 5:27.60 | 1:37.55 | 24585 | 31914
5 | 7:05.40 | 1:46.72 | 31915 | 39936
6 | 8:52.37 | 3:44.05 | 39937 | 56741
7 | 12:36.42 | 2:06.05 | 56742 | 66196
8 | 14:42.47 | 3:00.53 | 66197 | 79749
9 | 17:43.25 | 2:27.67 | 79750 | 90841
10 | 20:11.17 | 2:44.10 | 90842 | 103151
11 | 22:55.27 | 2:09.65 | 103152 | 112891
12 | 25:05.17 | 4:26.38 | 112892 | 132879
13 | 29:31.55 | 1:45.15 | 132880 | 140769
14 | 31:16.70 | 1:17.25 | 140770 | 146569
15 | 32:34.20 | 2:18.55 | 146570 | 156974
16 | 34:53.00 | 3:22.27 | 156975 | 172151
17 | 38:15.27 | 1:36.08 | 172152 | 179359
18 | 39:51.35 | 1:24.10 | 179360 | 185669
19 | 41:15.45 | 3:23.07 | 185670 | 200901
20 | 44:38.52 | 6:23.05 | 200902 | 229631
Track 1
Filename E:\T\Ensemble Renaissance - Anthology\01 1. Mihi confer venditor.wav
Pre-gap length 0:00:02.00
Peak level 73.2 %
Extraction speed 1.7 X
Track quality 100.0 %
Test CRC 31323F5C
Copy CRC 31323F5C
Track not present in AccurateRip database
Copy OK
Track 2
Filename E:\T\Ensemble Renaissance - Anthology\02 2. O admirabile Veneris ydolum.wav
Pre-gap length 0:00:02.24
Peak level 74.6 %
Extraction speed 1.3 X
Track quality 99.8 %
Test CRC 367E150C
Copy CRC 367E150C
Track not present in AccurateRip database
Copy OK
Track 3
Filename E:\T\Ensemble Renaissance - Anthology\03 3. Tempus est iocundum.wav
Pre-gap length 0:00:02.82
Peak level 72.4 %
Extraction speed 1.8 X
Track quality 100.0 %
Test CRC 01E8A0B0
Copy CRC 01E8A0B0
Track not present in AccurateRip database
Copy OK
Track 4
Filename E:\T\Ensemble Renaissance - Anthology\04 4. Veris dulcis in tempore.wav
Pre-gap length 0:00:03.00
Peak level 62.4 %
Extraction speed 1.8 X
Track quality 100.0 %
Test CRC 0045B1B2
Copy CRC 0045B1B2
Track not present in AccurateRip database
Copy OK
Track 5
Filename E:\T\Ensemble Renaissance - Anthology\05 5. Ecco la primavera.wav
Pre-gap length 0:00:02.66
Peak level 81.0 %
Extraction speed 1.9 X
Track quality 100.0 %
Test CRC 7566B06F
Copy CRC 7566B06F
Track not present in AccurateRip database
Copy OK
Track 6
Filename E:\T\Ensemble Renaissance - Anthology\06 6. Souvent souspire.wav
Pre-gap length 0:00:01.22
Peak level 69.3 %
Extraction speed 2.1 X
Track quality 99.9 %
Test CRC A569620B
Copy CRC A569620B
Track not present in AccurateRip database
Copy OK
Track 7
Filename E:\T\Ensemble Renaissance - Anthology\07 7. Ce fut en Mai.wav
Pre-gap length 0:00:04.13
Peak level 66.0 %
Extraction speed 2.3 X
Track quality 100.0 %
Test CRC 50487632
Copy CRC 50487632
Track not present in AccurateRip database
Copy OK
Track 8
Filename E:\T\Ensemble Renaissance - Anthology\08 8. Tant con je vivrai.wav
Pre-gap length 0:00:02.22
Peak level 73.4 %
Extraction speed 2.5 X
Track quality 100.0 %
Test CRC 48A0A3E3
Copy CRC 48A0A3E3
Track not present in AccurateRip database
Copy OK
Track 9
Filename E:\T\Ensemble Renaissance - Anthology\09 9. Maienzit.wav
Pre-gap length 0:00:02.57
Peak level 47.9 %
Extraction speed 2.5 X
Track quality 100.0 %
Test CRC 1E6E1111
Copy CRC 1E6E1111
Track not present in AccurateRip database
Copy OK
Track 10
Filename E:\T\Ensemble Renaissance - Anthology\10 10. Como poden - Cantiga de Santa Maria.wav
Pre-gap length 0:00:03.02
Peak level 69.5 %
Extraction speed 2.7 X
Track quality 100.0 %
Test CRC 7BE088BB
Copy CRC 7BE088BB
Track not present in AccurateRip database
Copy OK
Track 11
Filename E:\T\Ensemble Renaissance - Anthology\11 11. Stella splendens.wav
Pre-gap length 0:00:02.36
Peak level 84.4 %
Extraction speed 2.6 X
Track quality 100.0 %
Test CRC CB264E50
Copy CRC CB264E50
Track not present in AccurateRip database
Copy OK
Track 12
Filename E:\T\Ensemble Renaissance - Anthology\12 12. Serbian traveller melodies.wav
Pre-gap length 0:00:03.60
Peak level 87.4 %
Extraction speed 3.1 X
Track quality 100.0 %
Test CRC 6CE3338E
Copy CRC 6CE3338E
Track not present in AccurateRip database
Copy OK
Track 13
Filename E:\T\Ensemble Renaissance - Anthology\13 13. Oxford estampie.wav
Pre-gap length 0:00:03.93
Peak level 59.7 %
Extraction speed 2.7 X
Track quality 100.0 %
Test CRC 19AB9C43
Copy CRC 19AB9C43
Track not present in AccurateRip database
Copy OK
Track 14
Filename E:\T\Ensemble Renaissance - Anthology\14 14. Bagpipe tune.wav
Pre-gap length 0:00:02.60
Peak level 42.4 %
Extraction speed 1.9 X
Track quality 99.8 %
Test CRC 99F3FAA3
Copy CRC 99F3FAA3
Track not present in AccurateRip database
Copy OK
Track 15
Filename E:\T\Ensemble Renaissance - Anthology\15 15. Trotto.wav
Pre-gap length 0:00:01.86
Peak level 100.0 %
Extraction speed 3.0 X
Track quality 100.0 %
Test CRC 49923B59
Copy CRC 49923B59
Track not present in AccurateRip database
Copy OK
Track 16
Filename E:\T\Ensemble Renaissance - Anthology\16 16. Manfredina e rotta.wav
Pre-gap length 0:00:02.33
Peak level 86.1 %
Extraction speed 3.2 X
Track quality 100.0 %
Test CRC 6DD4C807
Copy CRC 6DD4C807
Track not present in AccurateRip database
Copy OK
Track 17
Filename E:\T\Ensemble Renaissance - Anthology\17 17. Saltarillo 2.wav
Pre-gap length 0:00:02.93
Peak level 88.2 %
Extraction speed 2.9 X
Track quality 100.0 %
Test CRC 6B8C807A
Copy CRC 6B8C807A
Track not present in AccurateRip database
Copy OK
Track 18
Filename E:\T\Ensemble Renaissance - Anthology\18 18. Saltarello 3.wav
Pre-gap length 0:00:03.00
Peak level 55.8 %
Extraction speed 2.8 X
Track quality 100.0 %
Test CRC CFA81B01
Copy CRC CFA81B01
Track not present in AccurateRip database
Copy OK
Track 19
Filename E:\T\Ensemble Renaissance - Anthology\19 19. Lamento di Tristano e rotta.wav
Pre-gap length 0:00:02.80
Peak level 83.2 %
Extraction speed 3.4 X
Track quality 100.0 %
Test CRC 91EEA00B
Copy CRC 91EEA00B
Track not present in AccurateRip database
Copy OK
Track 20
Filename E:\T\Ensemble Renaissance - Anthology\20 20. Ghaetta.wav
Pre-gap length 0:00:02.16
Peak level 92.3 %
Extraction speed 3.9 X
Track quality 100.0 %
Test CRC 41AB4664
Copy CRC 41AB4664
Track not present in AccurateRip database
Copy OK
None of the tracks are present in the AccurateRip database
No errors occurred
End of status report
---- CUETools DB Plugin V2.1.3
[CTDB TOCID: n5MtLQOTGbfPCRazoxy4PdmEhx4-] disk not present in database, Submit result: n5MtLQOTGbfPCRazoxy4PdmEhx4- has been uploaded
==== Log checksum D703317FC608B815000A5E4F29BE44EF1CBB2EA38234C69B27F8E811DD9FC97D ====

Содержание индексной карты (.CUE)

REM DATE 1997
REM DISCID 2C0BF514
REM COMMENT "ExactAudioCopy v1.0b3"
PERFORMER "Ensemble Renaissance"
TITLE "Hommage à l’Amour"
FILE "01. Mihi confer venditor.wav" WAVE
TRACK 01 AUDIO
TITLE "Mihi confer venditor"
PERFORMER "Ensemble Renaissance"
INDEX 01 00:00:00
TRACK 02 AUDIO
TITLE "O admirabile Veneris ydolum"
PERFORMER "Ensemble Renaissance"
INDEX 00 02:19:32
FILE "02. O admirabile Veneris ydolum.wav" WAVE
INDEX 01 00:00:00
TRACK 03 AUDIO
TITLE "Tempus est iocundum"
PERFORMER "Ensemble Renaissance"
INDEX 00 01:27:10
FILE "03. Tempus est iocundum.wav" WAVE
INDEX 01 00:00:00
TRACK 04 AUDIO
TITLE "Veris dulcis in tempore"
PERFORMER "Ensemble Renaissance"
INDEX 00 01:33:13
FILE "04. Veris dulcis in tempore.wav" WAVE
INDEX 01 00:00:00
TRACK 05 AUDIO
TITLE "Ecco la primavera"
PERFORMER "Ensemble Renaissance"
INDEX 00 01:35:05
FILE "05. Ecco la primavera.wav" WAVE
INDEX 01 00:00:00
TRACK 06 AUDIO
TITLE "Souvent souspire"
PERFORMER "Ensemble Renaissance"
INDEX 00 01:45:55
FILE "06. Souvent souspire.wav" WAVE
INDEX 01 00:00:00
TRACK 07 AUDIO
TITLE "Ce fut en Mai"
PERFORMER "Ensemble Renaissance"
INDEX 00 03:39:70
FILE "07. Ce fut en Mai.wav" WAVE
INDEX 01 00:00:00
TRACK 08 AUDIO
TITLE "Tant con je vivrai"
PERFORMER "Ensemble Renaissance"
INDEX 00 02:03:63
FILE "08. Tant con je vivrai.wav" WAVE
INDEX 01 00:00:00
TRACK 09 AUDIO
TITLE "Maienzit"
PERFORMER "Ensemble Renaissance"
INDEX 00 02:58:10
FILE "09. Maienzit.wav" WAVE
INDEX 01 00:00:00
TRACK 10 AUDIO
TITLE "Como poden"
PERFORMER "Ensemble Renaissance"
INDEX 00 02:24:65
FILE "10. Como poden.wav" WAVE
INDEX 01 00:00:00
TRACK 11 AUDIO
TITLE "Stella splendens "
PERFORMER "Ensemble Renaissance"
INDEX 00 02:41:58
FILE "11. Stella splendens.wav" WAVE
INDEX 01 00:00:00
TRACK 12 AUDIO
TITLE "Serbian traveller melodies"
PERFORMER "Ensemble Renaissance"
INDEX 00 02:06:20
FILE "12. Serbian traveller melodies.wav" WAVE
INDEX 01 00:00:00
TRACK 13 AUDIO
TITLE "Oxford estampie"
PERFORMER "Ensemble Renaissance"
INDEX 00 04:22:43
FILE "13. Oxford estampie.wav" WAVE
INDEX 01 00:00:00
TRACK 14 AUDIO
TITLE "Bagpipe tune"
PERFORMER "Ensemble Renaissance"
INDEX 00 01:42:45
FILE "14. Bagpipe tune.wav" WAVE
INDEX 01 00:00:00
TRACK 15 AUDIO
TITLE "Trotto"
PERFORMER "Ensemble Renaissance"
INDEX 00 01:15:35
FILE "15. Trotto.wav" WAVE
INDEX 01 00:00:00
TRACK 16 AUDIO
TITLE "Manfredina e rotta"
PERFORMER "Ensemble Renaissance"
INDEX 00 02:16:30
FILE "16. Manfredina e rotta.wav" WAVE
INDEX 01 00:00:00
TRACK 17 AUDIO
TITLE "Saltarello 2"
PERFORMER "Ensemble Renaissance"
INDEX 00 03:19:32
FILE "17. Saltarello 2.wav" WAVE
INDEX 01 00:00:00
TRACK 18 AUDIO
TITLE "Saltarello 3"
PERFORMER "Ensemble Renaissance"
INDEX 00 01:33:08
FILE "18. Saltarello 3.wav" WAVE
INDEX 01 00:00:00
TRACK 19 AUDIO
TITLE "Lamento di Tristano e rotta"
PERFORMER "Ensemble Renaissance"
INDEX 00 01:21:25
FILE "19. Lamento di Tristano e rotta.wav" WAVE
INDEX 01 00:00:00
TRACK 20 AUDIO
TITLE "Ghaetta"
PERFORMER "Ensemble Renaissance"
INDEX 00 03:20:70
FILE "20. Ghaetta.wav" WAVE
INDEX 01 00:00:00

Mon Amy

01. Pase el agoa, ma Julieta (1:49)
02. Danza ‘Alta’ (3:40)
03. Adorámoste Señor Dios (1:47)
04. Suite ‘La Magdalena’ (6:06)
05. Branle de Champaigne (1:25)
06. Branle double ‘La vieille’ (2:04)
07. Branle de Bourgogne (2:15)
08. Ma belle, si ton ame (2:10)
09. Branle de village (2:42)
10. Passamezzo (2:27)
11. So ben, mi, c’ha bon tempo (2:15)
12. Saltarello (1:38)
13. Take, o take, those lips away / Light o Love (4:22)
14. The Earl of Essex galiard (2:30)
15. Song of Fool (King Lear) (1:41)
16. Kemp’s jig (1:10)
17. Tobacco is like Love (2:59)
18. Jolly Robin (2:44)
19. My Lady Hunsdon’s Puffe (1:51)
20. Moresca (1:23)
21. Ronde ‘Pour quoy’ (1:54)
22. Ronde ‘Mon amy’ (2:28)
23. Ronde et saltarelle (2:19)
24. Balletto e volta (2:48)
25. Pavane ‘La bataille’ (4:15)
Продолжительность: 01:02:43

Лог создания рипа

Exact Audio Copy V1.0 beta 3 from 29. August 2011
EAC extraction logfile from 12. June 2012, 16:22
Ensemble Renaissance / 2 - Mon Amy
Used drive : HL-DT-STRW/DVD GCC-4241N Adapter: 1 ID: 0
Read mode : Secure
Utilize accurate stream : Yes
Defeat audio cache : Yes
Make use of C2 pointers : No
Read offset correction : 102
Overread into Lead-In and Lead-Out : No
Fill up missing offset samples with silence : Yes
Delete leading and trailing silent blocks : No
Null samples used in CRC calculations : Yes
Used interface : Native Win32 interface for Win NT & 2000
Gap handling : Appended to previous track
Used output format : User Defined Encoder
Selected bitrate : 1024 kBit/s
Quality : High
Add ID3 tag : No
Command line compressor : C:\Program Files\Exact Audio Copy\Flac\flac.exe
Additional command line options : -8 -V -T "ARTIST=%artist%" -T "TITLE=%title%" -T "ALBUM=%albumtitle%" -T "DATE=%year%" -T "TRACKNUMBER=%tracknr%" -T "GENRE=%genre%" -T "PERFORMER=%albuminterpret%" -T "COMPOSER=%composer%" %haslyrics%--tag-from-file=LYRICS="%lyricsfile%"%haslyrics% -T "ALBUMARTIST=%albumartist%" -T "DISCNUMBER=%cdnumber%" -T "TOTALDISCS=%totalcds%" -T "TOTALTRACKS=%numtracks%" -T "COMMENT=%comment%" %source% -o %dest%
TOC of the extracted CD
Track | Start | Length | Start sector | End sector
---------------------------------------------------------
1 | 0:00.00 | 1:49.10 | 0 | 8184
2 | 1:49.10 | 3:40.17 | 8185 | 24701
3 | 5:29.27 | 1:47.25 | 24702 | 32751
4 | 7:16.52 | 6:06.00 | 32752 | 60201
5 | 13:22.52 | 1:24.48 | 60202 | 66549
6 | 14:47.25 | 2:04.17 | 66550 | 75866
7 | 16:51.42 | 2:15.13 | 75867 | 86004
8 | 19:06.55 | 2:10.22 | 86005 | 95776
9 | 21:17.02 | 2:42.28 | 95777 | 107954
10 | 23:59.30 | 2:27.32 | 107955 | 119011
11 | 26:26.62 | 2:14.43 | 119012 | 129104
12 | 28:41.30 | 1:37.42 | 129105 | 136421
13 | 30:18.72 | 4:21.38 | 136422 | 156034
14 | 34:40.35 | 2:30.30 | 156035 | 167314
15 | 37:10.65 | 1:40.55 | 167315 | 174869
16 | 38:51.45 | 1:09.62 | 174870 | 180106
17 | 40:01.32 | 2:59.15 | 180107 | 193546
18 | 43:00.47 | 2:44.13 | 193547 | 205859
19 | 45:44.60 | 1:50.67 | 205860 | 214176
20 | 47:35.52 | 1:23.15 | 214177 | 220416
21 | 48:58.67 | 1:53.68 | 220417 | 228959
22 | 50:52.60 | 2:27.47 | 228960 | 240031
23 | 53:20.32 | 2:18.53 | 240032 | 250434
24 | 55:39.10 | 2:47.70 | 250435 | 263029
25 | 58:27.05 | 4:15.35 | 263030 | 282189
Track 1
Filename E:\T\Ensemble Renaissance - Anthology\2 - Mon Amy\01 1. 'Pase el agoa, ma Julieta'.wav
Pre-gap length 0:00:02.00
Peak level 99.1 %
Extraction speed 2.0 X
Track quality 100.0 %
Test CRC E62D5BFF
Copy CRC E62D5BFF
Track not present in AccurateRip database
Copy OK
Track 2
Filename E:\T\Ensemble Renaissance - Anthology\2 - Mon Amy\02 2. Danza 'Alta'.wav
Pre-gap length 0:00:03.77
Peak level 98.8 %
Extraction speed 2.5 X
Track quality 100.0 %
Test CRC AD431711
Copy CRC AD431711
Track not present in AccurateRip database
Copy OK
Track 3
Filename E:\T\Ensemble Renaissance - Anthology\2 - Mon Amy\03 3. 'Adoramoste Senor Dios'.wav
Pre-gap length 0:00:03.60
Peak level 54.5 %
Extraction speed 2.3 X
Track quality 100.0 %
Test CRC 0D3DBAC0
Copy CRC 0D3DBAC0
Track not present in AccurateRip database
Copy OK
Track 4
Filename E:\T\Ensemble Renaissance - Anthology\2 - Mon Amy\04 4. Suite 'La Magdalena'.wav
Pre-gap length 0:00:03.22
Peak level 91.0 %
Extraction speed 3.1 X
Track quality 100.0 %
Test CRC F58602A6
Copy CRC F58602A6
Track not present in AccurateRip database
Copy OK
Track 5
Filename E:\T\Ensemble Renaissance - Anthology\2 - Mon Amy\05 5. Branle de Champaigne.wav
Pre-gap length 0:00:05.69
Peak level 97.7 %
Extraction speed 2.0 X
Track quality 99.8 %
Test CRC 5D326B5A
Copy CRC 5D326B5A
Track not present in AccurateRip database
Copy OK
Track 6
Filename E:\T\Ensemble Renaissance - Anthology\2 - Mon Amy\06 6. Branle double 'La vieille'.wav
Pre-gap length 0:00:04.13
Peak level 83.5 %
Extraction speed 2.8 X
Track quality 100.0 %
Test CRC E1959779
Copy CRC E1959779
Track not present in AccurateRip database
Copy OK
Track 7
Filename E:\T\Ensemble Renaissance - Anthology\2 - Mon Amy\07 7. Branle de Bourgogne.wav
Pre-gap length 0:00:03.76
Peak level 94.2 %
Extraction speed 3.0 X
Track quality 100.0 %
Test CRC 8F4D9956
Copy CRC 8F4D9956
Track not present in AccurateRip database
Copy OK
Track 8
Filename E:\T\Ensemble Renaissance - Anthology\2 - Mon Amy\08 8. 'Ma belle, si ton ame'.wav
Pre-gap length 0:00:03.26
Peak level 98.9 %
Extraction speed 3.1 X
Track quality 100.0 %
Test CRC 33E6C4C0
Copy CRC 33E6C4C0
Track not present in AccurateRip database
Copy OK
Track 9
Filename E:\T\Ensemble Renaissance - Anthology\2 - Mon Amy\09 9. Branle de village.wav
Pre-gap length 0:00:02.76
Peak level 98.6 %
Extraction speed 3.3 X
Track quality 100.0 %
Test CRC 1FF305CA
Copy CRC 1FF305CA
Track not present in AccurateRip database
Copy OK
Track 10
Filename E:\T\Ensemble Renaissance - Anthology\2 - Mon Amy\10 10. Passamezzo - An..wav
Pre-gap length 0:00:03.77
Peak level 94.6 %
Extraction speed 3.3 X
Track quality 100.0 %
Test CRC 6E982FF5
Copy CRC 6E982FF5
Track not present in AccurateRip database
Copy OK
Track 11
Filename E:\T\Ensemble Renaissance - Anthology\2 - Mon Amy\11 11. 'So ben, mi, c'ha bon tempo'.wav
Pre-gap length 0:00:03.76
Peak level 95.8 %
Extraction speed 3.4 X
Track quality 100.0 %
Test CRC 58E53BBF
Copy CRC 58E53BBF
Track not present in AccurateRip database
Copy OK
Track 12
Filename E:\T\Ensemble Renaissance - Anthology\2 - Mon Amy\12 12. Saltarello.wav
Pre-gap length 0:00:02.77
Peak level 58.4 %
Extraction speed 3.2 X
Track quality 100.0 %
Test CRC F6065C39
Copy CRC F6065C39
Track not present in AccurateRip database
Copy OK
Track 13
Filename E:\T\Ensemble Renaissance - Anthology\2 - Mon Amy\13 13. 'Take, o take, those lips away' - An. - 'Light o 'Love'.wav
Pre-gap length 0:00:03.53
Peak level 96.9 %
Extraction speed 4.0 X
Track quality 100.0 %
Test CRC D8B2AFED
Copy CRC D8B2AFED
Track not present in AccurateRip database
Copy OK
Track 14
Filename E:\T\Ensemble Renaissance - Anthology\2 - Mon Amy\14 14. 'The Earl of Essex galiard'.wav
Pre-gap length 0:00:03.77
Peak level 73.4 %
Extraction speed 3.2 X
Track quality 99.9 %
Test CRC E770D528
Copy CRC E770D528
Track not present in AccurateRip database
Copy OK
Track 15
Filename E:\T\Ensemble Renaissance - Anthology\2 - Mon Amy\15 15. 'Song of Fool' ('King Lear') - An..wav
Pre-gap length 0:00:03.77
Peak level 89.3 %
Extraction speed 3.5 X
Track quality 100.0 %
Test CRC 509BA722
Copy CRC 509BA722
Track not present in AccurateRip database
Copy OK
Track 16
Filename E:\T\Ensemble Renaissance - Anthology\2 - Mon Amy\16 16. 'Kemps jug' - An..wav
Pre-gap length 0:00:01.77
Peak level 76.2 %
Extraction speed 3.2 X
Track quality 100.0 %
Test CRC 674F0681
Copy CRC 674F0681
Track not present in AccurateRip database
Copy OK
Track 17
Filename E:\T\Ensemble Renaissance - Anthology\2 - Mon Amy\17 17. 'Tobacco is like Love'.wav
Pre-gap length 0:00:03.76
Peak level 98.0 %
Extraction speed 4.1 X
Track quality 100.0 %
Test CRC 12079BEF
Copy CRC 12079BEF
Track not present in AccurateRip database
Copy OK
Track 18
Filename E:\T\Ensemble Renaissance - Anthology\2 - Mon Amy\18 18. 'Jolly Robin'- An..wav
Pre-gap length 0:00:03.80
Peak level 92.3 %
Extraction speed 4.1 X
Track quality 100.0 %
Test CRC 9EB6AA5E
Copy CRC 9EB6AA5E
Track not present in AccurateRip database
Copy OK
Track 19
Filename E:\T\Ensemble Renaissance - Anthology\2 - Mon Amy\19 19. 'My Lady Hunsdon's Puffe'.wav
Pre-gap length 0:00:02.26
Peak level 64.6 %
Extraction speed 3.1 X
Track quality 99.9 %
Test CRC 96BEBAB0
Copy CRC 96BEBAB0
Track not present in AccurateRip database
Copy OK
Track 20
Filename E:\T\Ensemble Renaissance - Anthology\2 - Mon Amy\20 20. Moresca - An..wav
Pre-gap length 0:00:03.76
Peak level 76.3 %
Extraction speed 3.6 X
Track quality 100.0 %
Test CRC 22F191BC
Copy CRC 22F191BC
Track not present in AccurateRip database
Copy OK
Track 21
Filename E:\T\Ensemble Renaissance - Anthology\2 - Mon Amy\21 21. Ronde 'Pour quoy'.wav
Pre-gap length 0:00:03.26
Peak level 96.8 %
Extraction speed 3.9 X
Track quality 100.0 %
Test CRC AB28729D
Copy CRC AB28729D
Track not present in AccurateRip database
Copy OK
Track 22
Filename E:\T\Ensemble Renaissance - Anthology\2 - Mon Amy\22 22. Ronde 'Mon amy'.wav
Pre-gap length 0:00:03.77
Peak level 95.0 %
Extraction speed 4.2 X
Track quality 100.0 %
Test CRC 03FC9B9F
Copy CRC 03FC9B9F
Track not present in AccurateRip database
Copy OK
Track 23
Filename E:\T\Ensemble Renaissance - Anthology\2 - Mon Amy\23 23. Ronde et saltarelle.wav
Pre-gap length 0:00:03.26
Peak level 91.0 %
Extraction speed 4.3 X
Track quality 100.0 %
Test CRC BAC31EBB
Copy CRC BAC31EBB
Track not present in AccurateRip database
Copy OK
Track 24
Filename E:\T\Ensemble Renaissance - Anthology\2 - Mon Amy\24 24. Balletto e volta.wav
Pre-gap length 0:00:03.77
Peak level 93.9 %
Extraction speed 4.5 X
Track quality 100.0 %
Test CRC 901476DE
Copy CRC 901476DE
Track not present in AccurateRip database
Copy OK
Track 25
Filename E:\T\Ensemble Renaissance - Anthology\2 - Mon Amy\25 25. Pavane 'La bataille'.wav
Pre-gap length 0:00:03.26
Peak level 94.1 %
Extraction speed 4.9 X
Track quality 100.0 %
Test CRC 1F8AE691
Copy CRC 1F8AE691
Track not present in AccurateRip database
Copy OK
None of the tracks are present in the AccurateRip database
No errors occurred
End of status report
---- CUETools DB Plugin V2.1.3
[CTDB TOCID: xa2eJwnnRy.6b4ADeAq2.FpQpSQ-] disk not present in database, Submit result: xa2eJwnnRy.6b4ADeAq2.FpQpSQ- has been uploaded
==== Log checksum 94A426CD01E0E48269DFBFFE07815317C1DC2FC4A87B4E408D13AA835CF5124F ====

Содержание индексной карты (.CUE)

REM DATE 1997
REM DISCID 400EB219
REM COMMENT "ExactAudioCopy v1.0b3"
CATALOG 0000000000000
PERFORMER "Ensemble Renaissance"
TITLE "Mon Amy"
FILE "01. Pase el agoa, ma Julieta.wav" WAVE
TRACK 01 AUDIO
TITLE "Pase el agoa, ma Julieta"
PERFORMER "Ensemble Renaissance"
INDEX 01 00:00:00
TRACK 02 AUDIO
TITLE "Danza ‘Alta’"
PERFORMER "Ensemble Renaissance"
INDEX 00 01:45:27
FILE "02. Danza ‘Alta’.wav" WAVE
INDEX 01 00:00:00
TRACK 03 AUDIO
TITLE "Adorámoste Señor Dios"
PERFORMER "Ensemble Renaissance"
INDEX 00 03:36:47
FILE "03. Adorámoste Señor Dios.wav" WAVE
INDEX 01 00:00:00
TRACK 04 AUDIO
TITLE "Suite ‘La Magdalena’"
PERFORMER "Ensemble Renaissance"
INDEX 00 01:44:08
FILE "04. Suite ‘La Magdalena’.wav" WAVE
INDEX 01 00:00:00
TRACK 05 AUDIO
TITLE "Branle de Champaigne"
PERFORMER "Ensemble Renaissance"
INDEX 00 06:00:23
FILE "05. Branle de Champaigne.wav" WAVE
INDEX 01 00:00:00
TRACK 06 AUDIO
TITLE "Branle double ‘La vieille’"
PERFORMER "Ensemble Renaissance"
INDEX 00 01:20:38
FILE "06. Branle double ‘La vieille’.wav" WAVE
INDEX 01 00:00:00
TRACK 07 AUDIO
TITLE "Branle de Bourgogne"
PERFORMER "Ensemble Renaissance"
INDEX 00 02:00:35
FILE "07. Branle de Bourgogne.wav" WAVE
INDEX 01 00:00:00
TRACK 08 AUDIO
TITLE "Ma belle, si ton ame"
PERFORMER "Ensemble Renaissance"
INDEX 00 02:11:68
FILE "08. Ma belle, si ton ame.wav" WAVE
INDEX 01 00:00:00
TRACK 09 AUDIO
TITLE "Branle de village"
PERFORMER "Ensemble Renaissance"
INDEX 00 02:07:40
FILE "09. Branle de village.wav" WAVE
INDEX 01 00:00:00
TRACK 10 AUDIO
TITLE "Passamezzo"
PERFORMER "Ensemble Renaissance"
INDEX 00 02:38:45
FILE "10. Passamezzo.wav" WAVE
INDEX 01 00:00:00
TRACK 11 AUDIO
TITLE "So ben, mi, c’ha bon tempo"
PERFORMER "Ensemble Renaissance"
INDEX 00 02:23:50
FILE "11. So ben, mi, c’ha bon tempo.wav" WAVE
INDEX 01 00:00:00
TRACK 12 AUDIO
TITLE "Saltarello"
PERFORMER "Ensemble Renaissance"
INDEX 00 02:11:60
FILE "12. Saltarello.wav" WAVE
INDEX 01 00:00:00
TRACK 13 AUDIO
TITLE "Take, o take, those lips away / Light o Love"
PERFORMER "Ensemble Renaissance"
INDEX 00 01:34:02
FILE "13. Take, o take, those lips away — Light o Love.wav" WAVE
INDEX 01 00:00:00
TRACK 14 AUDIO
TITLE "The Earl of Essex galiard"
PERFORMER "Ensemble Renaissance"
INDEX 00 04:17:55
FILE "14. The Earl of Essex galiard.wav" WAVE
INDEX 01 00:00:00
TRACK 15 AUDIO
TITLE "Song of Fool (King Lear)"
PERFORMER "Ensemble Renaissance"
INDEX 00 02:26:47
FILE "15. Song of Fool (King Lear).wav" WAVE
INDEX 01 00:00:00
TRACK 16 AUDIO
TITLE "Kemp’s jig"
PERFORMER "Ensemble Renaissance"
INDEX 00 01:38:72
FILE "16. Kemp’s jig.wav" WAVE
INDEX 01 00:00:00
TRACK 17 AUDIO
TITLE "Tobacco is like Love"
PERFORMER "Ensemble Renaissance"
INDEX 00 01:06:05
FILE "17. Tobacco is like Love.wav" WAVE
INDEX 01 00:00:00
TRACK 18 AUDIO
TITLE "Jolly Robin"
PERFORMER "Ensemble Renaissance"
INDEX 00 02:55:30
FILE "18. Jolly Robin.wav" WAVE
INDEX 01 00:00:00
TRACK 19 AUDIO
TITLE "My Lady Hunsdon’s Puffe"
PERFORMER "Ensemble Renaissance"
INDEX 00 02:41:68
FILE "19. My Lady Hunsdon’s Puffe.wav" WAVE
INDEX 01 00:00:00
TRACK 20 AUDIO
TITLE "Moresca"
PERFORMER "Ensemble Renaissance"
INDEX 00 01:47:10
FILE "20. Moresca.wav" WAVE
INDEX 01 00:00:00
TRACK 21 AUDIO
TITLE "Ronde ‘Pour quoy’"
PERFORMER "Ensemble Renaissance"
INDEX 00 01:19:70
FILE "21. Ronde ‘Pour quoy’.wav" WAVE
INDEX 01 00:00:00
TRACK 22 AUDIO
TITLE "Ronde ‘Mon amy’"
PERFORMER "Ensemble Renaissance"
INDEX 00 01:50:10
FILE "22. Ronde ‘Mon amy’.wav" WAVE
INDEX 01 00:00:00
TRACK 23 AUDIO
TITLE "Ronde et saltarelle"
PERFORMER "Ensemble Renaissance"
INDEX 00 02:24:27
FILE "23. Ronde et saltarelle.wav" WAVE
INDEX 01 00:00:00
TRACK 24 AUDIO
TITLE "Balletto e volta "
PERFORMER "Ensemble Renaissance"
INDEX 00 02:14:70
FILE "24. Balletto e volta.wav" WAVE
INDEX 01 00:00:00
TRACK 25 AUDIO
TITLE "Pavane ‘La bataille’"
PERFORMER "Ensemble Renaissance"
INDEX 00 02:44:50
FILE "25. Pavane ‘La bataille’.wav" WAVE
INDEX 01 00:00:00



Показать сообщения:    

Текущее время: 11-Дек 01:26

Часовой пояс: UTC + 3


Вы не можете начинать темы
Вы не можете отвечать на сообщения
Вы не можете редактировать свои сообщения
Вы не можете удалять свои сообщения
Вы не можете голосовать в опросах
Вы не можете прикреплять файлы к сообщениям
Вы не можете скачивать файлы