Удар властью. Егор Гайдар [01/09/2015, Документальный, SATRip]


Статистика раздачи [Обновить пиров]
Размер:  574 MB   |    Зарегистрирован:  8 месяцев 20 дней   |    Скачан:  0 раз

Полного источника не было: Никогда

 
   
 
 
 

[Цитировать]

Удар властью. Егор Гайдар
Дата/Год выпуска: 01/09/2015
Страна: Россия
Жанр: Документальный
Продолжительность: 00:41:23
Перевод: Не требуется
Телеканал: ТВЦ
Описание: Одни называют его гением, спасшим страну от экономического коллапса и гражданской войны, другие считают Гайдара и его команду "мальчиками в розовых штанишках", которые заставили людей голодать и бедствовать. Многие близкие ему люди считают, что в 2006-м году он был отравлен... И яд свел его в могилу за три года. За что и кто мог отомстить Егору Гайдару?
Сэмпл: http://sendfile.su/1150816
качество: SATRip
формат: AVI
Видео: Xvid 704x448 25.00fps 1799kbps
Аудио: MPEG Audio Layer 3 48000Hz stereo 128kbps

MediaInfo

I:\Удар властью. Егор Гайдар\Udar.vlastju.Egor.Gajdar.2015.09.01.SATRip_[www.Riper.AM].avi
General
Complete name : I:\Удар властью. Егор Гайдар\Udar.vlastju.Egor.Gajdar.2015.09.01.SATRip_[www.Riper.AM].avi
Format : AVI
Format/Info : Audio Video Interleave
File size : 574 MiB
Duration : 41mn 23s
Overall bit rate : 1 937 Kbps
Writing application : VirtualDubMod 1.5.10.3 | www.virtualdub-fr.org || (build 2550/release)
Writing library : VirtualDubMod build 2550/release
Video #0
ID : 0
Format : MPEG-4 Visual
Format profile : Advanced Simple@L5
Format settings, BVOP : 2
Format settings, QPel : No
Format settings, GMC : No warppoints
Format settings, Matrix : Default (H.263)
Codec ID : XVID
Codec ID/Hint : XviD
Duration : 41mn 23s
Bit rate : 1 800 Kbps
Width : 704 pixels
Height : 448 pixels
Display aspect ratio : 16:10
Frame rate : 25.000 fps
Color space : YUV
Chroma subsampling : 4:2:0
Bit depth : 8 bits
Scan type : Progressive
Compression mode : Lossy
Bits/(Pixel*Frame) : 0.228
Stream size : 533 MiB (93%)
Writing library : XviD 1.2.1 (UTC 2008-12-04)
Audio #1
ID : 1
Format : MPEG Audio
Format version : Version 1
Format profile : Layer 3
Codec ID : 55
Codec ID/Hint : MP3
Duration : 41mn 23s
Bit rate mode : Constant
Bit rate : 128 Kbps
Channel count : 2 channels
Sampling rate : 48.0 KHz
Compression mode : Lossy
Stream size : 37.9 MiB (7%)
Alignment : Aligned on interleaves
Interleave, duration : 40 ms (1.00 video frame)
Interleave, preload duration : 504 ms
Writing library : LAME3.99r
Encoding settings : -m s -V 4 -q 2 -lowpass 17 -b 128

Скриншоты

[teatrix.ru].t22163.torrent 
Торрент: Зарегистрирован [ 2016-03-20 12:42 ] · 2505BE99701F2932F25D3D1F809A1D1E97BAC864

Скачать .torrent

Скачать

12 KB

Статус: проверено
Скачан: 0 раз
Размер: 574 MB
terms.php



Быстрый ответ

Имя:

      
Для отправки сообщений необходимо включить JavaScript
Показать сообщения:    

Текущее время: 09-Дек 22:27

Часовой пояс: UTC + 3


Вы можете начинать темы
Вы можете отвечать на сообщения
Вы не можете редактировать свои сообщения
Вы не можете удалять свои сообщения
Вы не можете голосовать в опросах
Вы не можете прикреплять файлы к сообщениям
Вы можете скачивать файлы