Эпизоды. Виктор Славкин [2005 г., телепередача, SATRip]


Статистика раздачи [Обновить пиров]
Размер:  441 MB   |    Зарегистрирован:  8 месяцев 17 дней   |    Скачан:  0 раз

Полного источника не было: Никогда

 
   
 
 
 

[Цитировать]

Эпизоды. Виктор Славкин К 80-летию со дня рождения Виктора Иосифовича Славкина.
(1 августа 1935 - 16 марта 2014)

Год выпуска: 2005.
Жанр: телепередача.
Продолжительность: 00:38:45.
Описание:
Драматург, автор пьес, миниатюр, скетчей. Виктор Славкин рассказал о своем жизненном и творческом пути. Воспоминаниями о работе с драматургом делятся Марк Розовский и Алексей Козлов. Включены фрагменты фильмов "Дорога на Чаттанугу", "Бродвей моей юности" и фрагменты передачи "Вокруг смеха".
Дополнительная информация:
Страна: Россия .
Выпущено: Студия художественных программ © ГТРК "Культура".

Релиз
Рип lesik689.

Качество видео:...SATRip
Формат:.................AVI
Видео:..704x528 (1.33:1), 25 fps, XviD build 64 ~1452 kbps avg, 0.16 bit/pixel
Аудио:..48 kHz, MPEG Layer 3, 2 ch, ~128.00 kbps avg

Отчет Media Info

General
Complete name : Epizody.Viktor.Slavkin.2005.XviD.SATRip.fenixclub.avi
Format : AVI
Format/Info : Audio Video Interleave
File size : 441 MiB
Duration : 38mn 45s
Overall bit rate : 1 590 Kbps
Video
ID : 0
Format : MPEG-4 Visual
Format profile : Advanced Simple@L5
Format settings, BVOP : 1
Format settings, QPel : No
Format settings, GMC : No warppoints
Format settings, Matrix : Default (MPEG)
Codec ID : XVID
Codec ID/Hint : XviD
Duration : 38mn 45s
Bit rate : 1 452 Kbps
Width : 704 pixels
Height : 528 pixels
Display aspect ratio : 4:3
Frame rate : 25.000 fps
Color space : YUV
Chroma subsampling : 4:2:0
Bit depth : 8 bits
Scan type : Progressive
Compression mode : Lossy
Bits/(Pixel*Frame) : 0.156
Stream size : 403 MiB (91%)
Writing library : XviD 64
Audio
ID : 1
Format : MPEG Audio
Format version : Version 1
Format profile : Layer 3
Mode : Joint stereo
Mode extension : MS Stereo
Codec ID : 55
Codec ID/Hint : MP3
Duration : 38mn 45s
Bit rate mode : Constant
Bit rate : 128 Kbps
Channel(s) : 2 channels
Sampling rate : 48.0 KHz
Compression mode : Lossy
Stream size : 35.5 MiB (8%)
Alignment : Split accross interleaves
Interleave, duration : 40 ms (0.99 video frame)
Interleave, preload duratio : 500 ms

Скриншоты

Альтернативный хост

[teatrix.ru].t22165.torrent 
Торрент: Зарегистрирован [ 2016-03-20 12:42 ] · F68FED297450283F2E22526A97EC0076BECFC013

Скачать .torrent

Скачать

18 KB

Статус: проверено
Скачан: 0 раз
Размер: 441 MB
terms.php



Быстрый ответ

Имя:

      
Для отправки сообщений необходимо включить JavaScript
Показать сообщения:    

Текущее время: 07-Дек 00:55

Часовой пояс: UTC + 3


Вы можете начинать темы
Вы можете отвечать на сообщения
Вы не можете редактировать свои сообщения
Вы не можете удалять свои сообщения
Вы не можете голосовать в опросах
Вы не можете прикреплять файлы к сообщениям
Вы можете скачивать файлы