[TR24][SM][OF] Anne-Sophie Mutter, Berliner Philharmoniker, Manfred Honeck - Antonín Dvořák (Antonín Dvorak) - Violin Concerto - Romance - Mazurek - Humoresque - 2013 (Classical)


Статистика раздачи [Обновить пиров]
Размер:  1.01 GB   |    Зарегистрирован:  8 месяцев 13 дней   |    Скачан:  0 раз

Полного источника не было: Никогда

 
   
 
 
 

[Цитировать]

Anne-Sophie Mutter, Berliner Philharmoniker, Manfred Honeck / Antonín Dvořák (Antonin Dvorak) - Violin Concerto - Romance - Mazurek - Humoresque
Формат записи/Источник записи: [TR24][SM][OF]
Наличие водяных знаков: Нет
Год издания/переиздания диска: 2013
Жанр: Classical
Издатель(лейбл): Deutsche Grammophon
Продолжительность: 55:03
Наличие сканов в содержимом раздачи: Да
Треклист:
Violin Concerto in A minor, Op.53
1. Allegro ma non troppo - Quasi moderato 12:26
2. Adagio, ma non troppo 11:25
3. Finale (Allegro giocoso, ma non troppo) 9:54
4. Romance in F Minor, Op.11 12:15
5. Mazurek, Op.49 5:51
Anne-Sophie Mutter, Berliner Philharmoniker, Manfred Honeck
Humoresque, Op.101, No.7
6. Humoresque, Op.101, No.7 3:12
Anne-Sophie Mutter, Ayami Ikeba
Контейнер: FLAC (*.flac)
Тип рипа: tracks
Разрядность: 24/96
Формат: PCM
Количество каналов: 2.0

Отчет динамического диапазона

foobar2000 1.3.7 / Dynamic Range Meter 1.1.1
log date: 2015-08-31 23:55:13
--------------------------------------------------------------------------------
Analyzed: Anne-Sophie Mutter, Violin
Ayami Ikeba, Piano
Antonin Dvorak, Composer / Anne-Sophie Mutter - Berliner Philharmoniker - Manfred Honeck : Anton Dvorák : Violin Concerto - Romance - Mazurka - Humoresque (1)
Anne-Sophie Mutter, Violin
Berliner Philharmoniker Orchestra
Manfred Honeck, Conductor
Antonin Dvorak, Compose / Anne-Sophie Mutter - Berliner Philharmoniker - Manfred Honeck : Anton Dvorák : Violin Concerto - Romance - Mazurka - Humoresque (2-5)
Anne-Sophie Mutter, Violin
Berliner Philharmoniker Orchestra
Manfred Honeck, Conductor
Antonin Dvorak, Composer / Anne-Sophie Mutter - Berliner Philharmoniker - Manfred Honeck : Anton Dvorák : Violin Concerto - Romance - Mazurka - Humoresque (6)
--------------------------------------------------------------------------------
DR Peak RMS Duration Track
--------------------------------------------------------------------------------
DR14 -0.76 dB -21.93 dB 12:26 01-Violin Concerto In A Minor, Op.53:1. Allegro ma non troppo - Quasi moderato
DR17 -1.70 dB -25.38 dB 11:25 02-Violin Concerto In A Minor, Op.53:2. Adagio, ma non troppo
DR15 -0.12 dB -20.69 dB 9:54 03-Violin Concerto In A Minor, Op.53:3. Finale (Allegro giocoso, ma non troppo)
DR18 -1.56 dB -25.72 dB 12:15 04-Romance in F minor, Op. 11:Dvorák: Romance In F Minor, Op.11
DR16 -0.05 dB -22.95 dB 5:54 05-Mazurek, Op.49:Dvorák: Mazurek, Op.49
DR12 -9.07 dB -27.91 dB 3:12 06-Humoresque, Op.101, No.7:Dvorák: Humoresque, Op.101, No.7
--------------------------------------------------------------------------------
Number of tracks: 6
Official DR value: DR15
Samplerate: 96000 Hz
Channels: 2
Bits per sample: 24
Bitrate: 2582 kbps
Codec: FLAC
================================================================================
Источник (релизер):
Оркестр: Berliner Philharmoniker
Композитор: Antonín Dvořák
Дирижер: Manfred Honeck
Исполнитель: Anne-Sophie Mutter
[teatrix.ru].t22166.torrent 
Торрент: Зарегистрирован [ 2016-03-20 12:42 ] · 29B1401B9887451EF4DD8330BDA81C5DC418465B

Скачать .torrent

Скачать

11 KB

Статус: проверено
Скачан: 0 раз
Размер: 1.01 GB
terms.php



Быстрый ответ

Имя:

      
Для отправки сообщений необходимо включить JavaScript
Показать сообщения:    

Текущее время: 03-Дек 05:29

Часовой пояс: UTC + 3


Вы можете начинать темы
Вы можете отвечать на сообщения
Вы не можете редактировать свои сообщения
Вы не можете удалять свои сообщения
Вы не можете голосовать в опросах
Вы не можете прикреплять файлы к сообщениям
Вы можете скачивать файлы