[BR] Zofo - Zoforbit - 2014 (Classical / Piano)


Статистика раздачи [Обновить пиров]
Размер:  2 GB   |    Зарегистрирован:  8 месяцев 15 дней   |    Скачан:  0 раз

Полного источника не было: Никогда

 
   
 
 
 

[Цитировать]

[BR] ZOFO - ZOFORBIT
Жанр: Classical / Piano
Страна-производитель диска: США
Год издания диска: 2014
Издатель (лейбл): Sono Luminus
Номер по каталогу: DSL-92178
Дата записи: 2014
Аудиокодек: FLAC
Тип рипа: tracks
Битрейт аудио: lossless 24/192
Продолжительность: 1:09:24
Источник: собственный рип
сайт-источник/ник/другое: Twitch
Наличие сканов в содержимом раздачи: да
Треклист:
01. Urmas Sisask - The Milky Way I
02. Urmas Sisask - The Milky Way II
03. Gustav Holst - The Planets I - Mars, the Bringer of War
04. Gustav Holst - The Planets II - Venus, the Bringer of Peace
05. Gustav Holst - The Planets III - Mercury, the Winged Messenger
06. Gustav Holst - The Planets IV - Jupiter, the Bringer of Jollity
07. Gustav Holst - The Planets V - Saturn, the Bringer of Old Age
08. Gustav Holst - The Planets VI - Uranus, the Magician
09. Gustav Holst - The Planets VII - Neptune, the Mystic
10. George Crumb - Celestial Mechanics I - Alpha Centauri
11. George Crumb - Celestial Mechanics II - Beta Cygni
12. David Lang - Gravity
Исполнители:
Eva-Maria Zimmermann & Keisuke Nakagoshi, piano four hands

Скриншот спектра частот

Доп. информация: Blu-Ray Pure Audio, flac files provided directly by blu-ray disc.

Official DR value

foobar2000 1.3.2 / Замер динамического диапазона (DR) 1.1.1
Дата отчёта: 2015-09-04 19:54:31
--------------------------------------------------------------------------------
Анализ: ZOFO / ZOFORBIT
--------------------------------------------------------------------------------
DR Пики RMS Продолжительность трека
--------------------------------------------------------------------------------
DR13 -0.14 дБ -19.29 дБ 7:37 01-I
DR20 -4.62 дБ -32.49 дБ 3:57 02-II
DR12 -0.14 дБ -15.80 дБ 6:41 03-I. Mars, the Bringer of War
DR18 -5.08 дБ -29.81 дБ 6:42 04-II. Venus, the Bringer of Peace
DR15 -0.67 дБ -22.24 дБ 3:47 05-III. Mercury, the Winged Messenger
DR14 -0.14 дБ -18.08 дБ 7:26 06-IV. Jupiter, the Bringer of Jollity
DR16 -0.14 дБ -23.36 дБ 7:42 07-V. Saturn, the Bringer of Old Age
DR14 -0.14 дБ -19.12 дБ 5:34 08-VI. Uranus, the Magician
DR13 -13.70 дБ -32.25 дБ 5:56 09-VII. Neptune, the Mystic
DR15 -0.14 дБ -18.61 дБ 3:58 10-I. Alpha Centauri
DR19 -9.38 дБ -35.76 дБ 4:57 11-II. Beta Cygni
DR14 -15.32 дБ -34.07 дБ 5:08 12-gravity
--------------------------------------------------------------------------------
Количество треков: 12
Реальные значения DR: DR15
Частота: 192000 Гц
Каналов: 2
Разрядность: 24
Битрейт: 4111 кбит/с
Кодек: FLAC
================================================================================
[teatrix.ru].t22167.torrent 
Торрент: Зарегистрирован [ 2016-03-20 12:42 ] · 6712719F147B81D55ABFA9A10B4DFD6061063198

Скачать .torrent

Скачать

42 KB

Статус: проверено
Скачан: 0 раз
Размер: 2 GB
terms.php



Быстрый ответ

Имя:

      
Для отправки сообщений необходимо включить JavaScript
Показать сообщения:    

Текущее время: 04-Дек 13:12

Часовой пояс: UTC + 3


Вы можете начинать темы
Вы можете отвечать на сообщения
Вы не можете редактировать свои сообщения
Вы не можете удалять свои сообщения
Вы не можете голосовать в опросах
Вы не можете прикреплять файлы к сообщениям
Вы можете скачивать файлы