(Opera) Rubinstein - The Demon / Рубинштейн - Демон (Иванов, Талахадзе, Козловский, Грибова - Хор и оркестр Большого театра, Мелик-Пашаев) - 2003, APE (image+.cue) lossless


 

[Цитировать]

Anton Rubinstein - The Demon
Жанр: Opera
Страна-производитель диска: EU
Год издания диска: 2003
Издатель (лейбл): Opera D'Oro
Номер по каталогу: OPD-1394
Дата записи: 1950
Аудиокодек: APE
Тип рипа: image+.cue
Битрейт аудио: lossless
Продолжительность: 73'30+68'10
Источник: собственный рип
Наличие сканов в содержимом раздачи: да
Треклист:

CD1

1. Prologue. Introduction
2. Prologue. Again above the earth the Demon is flying
3. Prologue. Accursed world! Despicable world!
4. Act 1. Down to the bright Aragva we go every evening
5. Act 1. What do I see?
6. Act 1. Enough, enough!
7. Act 1. Child, in your embraces
8. Act 1. Home! Quickly!
9. Act 1. Hey! Hey!
10. Act 1. Equip a messenger to go
11. Act 1. Don't worry, don't be depressed
12. Act 1. Tomorrow, when we set off at dawn
13. Act 1. In the darkness of the night
14. Act 1. While he was praying
15. Act 1. Where are my servants?
16. Act 2. GHey! Hey!
17. Act 2. Tamara! The Prince has sent a messenger to you
18. Act 2. Dance of the Men

CD2

1. Act 2. Dance of the Women
2. Act 2. Oh, woe! Alas!
3. Act 2. Oh, God, God. What a dreadful, terrible sight!
4. Act 2. Do not weep, child
5. Act 2. What did he say?
6. Act 2. On the ocean of the air
7. Act 2. Where is he?
8. Act 2. Father, Father, my soul is suffering
9. Act 3 & Epilogue. All Christians are asleep
10. Act 3 & Epilogue.The holy convent sleeps
11. Act 3 & Epilogue. The night is warm, the night is calm
12. Act 3 & Epilogue. All Christians are asleep
13. Act 3 & Epilogue. Long ago, disturbing my thought
14. Act 3 & Epilogue. Whoever you are, my sad friend
15. Act 3 & Epilogue. (Creating everything, eternally good
16. Apotheosis. We bear the sinful soul
Исполнители:
Anton Rubinstein - The Demon
Opera in prologue and three acts (1871)
Text by P. Viskovatov after the poem by Lermontov.
The Demon - Alexei Ivanov (baryton)
Tamara - Tatiana Talakhadze (soprano)
Old Servant - Vladimir Gavryushov (basse)
The Angel - Elena Gribova (mezzo-soprano)
Prince Gudal - Sergei Krasovsky (basse)
Messenger - Alexander Khosson (ténor)
Prince Sinodal - Ivan Kozlovsky (ténor)
Nanny - Maria Kuznetsova (soprano)
Chorus and Orchestra of the Bolshoi Theatre, Moscow
Alexander Melik-Pashayev

Лог создания рипа

CD1

Exact Audio Copy V1.0 beta 6 from 9. April 2015
EAC extraction logfile from 1. September 2015, 19:15
Ivanov, Talakhadze, Kozlovsk, Gribova - Bolshoi Theatre Orch. & Chorus, Melik-Pashaev / Rubinstein - The Demon CD1
Used drive : TSSTcorpCDDVDW SE-208AB Adapter: 1 ID: 2
Read mode : Secure
Utilize accurate stream : Yes
Defeat audio cache : Yes
Make use of C2 pointers : No
Read offset correction : 6
Overread into Lead-In and Lead-Out : No
Fill up missing offset samples with silence : Yes
Delete leading and trailing silent blocks : No
Null samples used in CRC calculations : Yes
Used interface : Native Win32 interface for Win NT & 2000
Used output format : Monkey's Audio Lossless Encoder
Selected bitrate : High Lossless Compression
Quality : High
Add ID3 tag : Yes
Command line compressor : C:\Program Files (x86)\Exact Audio Copy\MAC\MAC.exe
TOC of the extracted CD
Track | Start | Length | Start sector | End sector
---------------------------------------------------------
1 | 0:00.00 | 1:53.68 | 0 | 8542
2 | 1:53.68 | 4:46.21 | 8543 | 30013
3 | 6:40.14 | 6:58.17 | 30014 | 61380
4 | 13:38.31 | 4:02.46 | 61381 | 79576
5 | 17:41.02 | 1:06.65 | 79577 | 84591
6 | 18:47.67 | 3:06.37 | 84592 | 98578
7 | 21:54.29 | 3:27.40 | 98579 | 114143
8 | 25:21.69 | 1:49.08 | 114144 | 122326
9 | 27:11.02 | 2:17.66 | 122327 | 132667
10 | 29:28.68 | 6:23.74 | 132668 | 161466
11 | 35:52.67 | 3:30.47 | 161467 | 177263
12 | 39:23.39 | 5:23.69 | 177264 | 201557
13 | 44:47.33 | 5:38.02 | 201558 | 226909
14 | 50:25.35 | 4:07.17 | 226910 | 245451
15 | 54:32.52 | 4:13.67 | 245452 | 264493
16 | 58:46.44 | 2:56.58 | 264494 | 277751
17 | 61:43.27 | 3:36.20 | 277752 | 293971
18 | 65:19.47 | 8:11.12 | 293972 | 330808
Range status and errors
Selected range
Filename D:\EAC\Rubinstein - The Demon CD1.wav
Peak level 100.0 %
Extraction speed 5.1 X
Range quality 100.0 %
Test CRC 72EE657E
Copy CRC 72EE657E
Copy OK
No errors occurred
AccurateRip summary
Track 1 accurately ripped (confidence 1) [D70E994B] (AR v1)
Track 2 accurately ripped (confidence 1) [CEDDB53C] (AR v1)
Track 3 accurately ripped (confidence 1) [BE7C1564] (AR v1)
Track 4 accurately ripped (confidence 1) [8E582962] (AR v1)
Track 5 accurately ripped (confidence 1) [43B0F96A] (AR v1)
Track 6 accurately ripped (confidence 1) [451CBE1F] (AR v1)
Track 7 accurately ripped (confidence 1) [47B6C47F] (AR v1)
Track 8 accurately ripped (confidence 1) [5E400969] (AR v1)
Track 9 accurately ripped (confidence 1) [5BCFF730] (AR v1)
Track 10 accurately ripped (confidence 1) [5AA5CE72] (AR v1)
Track 11 accurately ripped (confidence 1) [CDC714A0] (AR v1)
Track 12 accurately ripped (confidence 1) [7BD03788] (AR v1)
Track 13 accurately ripped (confidence 1) [ABAF1DBC] (AR v1)
Track 14 accurately ripped (confidence 1) [DB6776DA] (AR v1)
Track 15 accurately ripped (confidence 1) [72A67BF7] (AR v1)
Track 16 accurately ripped (confidence 1) [DB85D2E0] (AR v1)
Track 17 accurately ripped (confidence 1) [15EE31A9] (AR v1)
Track 18 accurately ripped (confidence 1) [4C249FBC] (AR v1)
All tracks accurately ripped
End of status report
---- CUETools DB Plugin V2.1.6
[CTDB TOCID: L1qxBqkVnU_VA9LkrQjaiQemfrc-] found
Submit result: L1qxBqkVnU_VA9LkrQjaiQemfrc- has been confirmed
Track | CTDB Status
1 | (2/2) Accurately ripped
2 | (2/2) Accurately ripped
3 | (2/2) Accurately ripped
4 | (2/2) Accurately ripped
5 | (2/2) Accurately ripped
6 | (2/2) Accurately ripped
7 | (2/2) Accurately ripped
8 | (2/2) Accurately ripped
9 | (2/2) Accurately ripped
10 | (2/2) Accurately ripped
11 | (2/2) Accurately ripped
12 | (2/2) Accurately ripped
13 | (2/2) Accurately ripped
14 | (2/2) Accurately ripped
15 | (2/2) Accurately ripped
16 | (2/2) Accurately ripped
17 | (2/2) Accurately ripped
18 | (2/2) Accurately ripped
==== Log checksum 5DBC6BB97DE32B03AD87224251F8B7AE4FA1863B371D51016CD0788AD0FD8870 ====

CD2

Exact Audio Copy V1.0 beta 6 from 9. April 2015
EAC extraction logfile from 1. September 2015, 19:14
Ivanov, Talakhadze, Kozlovsk, Gribova - Bolshoi Theatre Orch. & Chorus, Melik-Pashaev / Rubinstein - The Demon CD2
Used drive : TS8XDVDSTRANSCEND Adapter: 1 ID: 1
Read mode : Secure
Utilize accurate stream : Yes
Defeat audio cache : Yes
Make use of C2 pointers : No
Read offset correction : 6
Overread into Lead-In and Lead-Out : No
Fill up missing offset samples with silence : Yes
Delete leading and trailing silent blocks : No
Null samples used in CRC calculations : Yes
Used interface : Native Win32 interface for Win NT & 2000
Used output format : Monkey's Audio Lossless Encoder
Selected bitrate : High Lossless Compression
Quality : High
Add ID3 tag : Yes
Command line compressor : C:\Program Files (x86)\Exact Audio Copy\MAC\MAC.exe
TOC of the extracted CD
Track | Start | Length | Start sector | End sector
---------------------------------------------------------
1 | 0:00.00 | 5:49.66 | 0 | 26240
2 | 5:49.66 | 2:30.17 | 26241 | 37507
3 | 8:20.08 | 5:44.29 | 37508 | 63336
4 | 14:04.37 | 3:03.69 | 63337 | 77130
5 | 17:08.31 | 1:05.41 | 77131 | 82046
6 | 18:13.72 | 4:19.37 | 82047 | 101508
7 | 22:33.34 | 2:36.55 | 101509 | 113263
8 | 25:10.14 | 6:55.26 | 113264 | 144414
9 | 32:05.40 | 2:50.74 | 144415 | 157238
10 | 34:56.39 | 5:36.01 | 157239 | 182439
11 | 40:32.40 | 3:43.38 | 182440 | 199202
12 | 44:16.03 | 6:21.67 | 199203 | 227844
13 | 50:37.70 | 3:00.23 | 227845 | 241367
14 | 53:38.18 | 5:58.37 | 241368 | 268254
15 | 59:36.55 | 6:58.74 | 268255 | 299678
16 | 66:35.54 | 1:35.14 | 299679 | 306817
Range status and errors
Selected range
Filename D:\EAC\Rubinstein - The Demon CD2.wav
Peak level 100.0 %
Extraction speed 4.9 X
Range quality 99.9 %
Test CRC E0DEA453
Copy CRC E0DEA453
Copy OK
No errors occurred
AccurateRip summary
Track 1 accurately ripped (confidence 1) [2BF633B7] (AR v1)
Track 2 accurately ripped (confidence 1) [FA0E7221] (AR v1)
Track 3 accurately ripped (confidence 1) [4DEAC339] (AR v1)
Track 4 accurately ripped (confidence 1) [FF9FFB27] (AR v1)
Track 5 accurately ripped (confidence 1) [2EDF7E13] (AR v1)
Track 6 accurately ripped (confidence 1) [E8B0EFB5] (AR v1)
Track 7 accurately ripped (confidence 1) [BE63ED07] (AR v1)
Track 8 accurately ripped (confidence 1) [7C2B1966] (AR v1)
Track 9 accurately ripped (confidence 1) [6CDA9237] (AR v1)
Track 10 accurately ripped (confidence 1) [43C54FCD] (AR v1)
Track 11 accurately ripped (confidence 1) [41CE6BF4] (AR v1)
Track 12 accurately ripped (confidence 1) [A9D47470] (AR v1)
Track 13 accurately ripped (confidence 1) [742BC6D5] (AR v1)
Track 14 accurately ripped (confidence 1) [1805388C] (AR v1)
Track 15 accurately ripped (confidence 1) [90C0B538] (AR v1)
Track 16 accurately ripped (confidence 1) [861101B4] (AR v1)
All tracks accurately ripped
End of status report
---- CUETools DB Plugin V2.1.6
[CTDB TOCID: GjdN5ISd71B0mvxG7ye2vfT6pcA-] found
Submit result: unrecognized or virtual drive
Track | CTDB Status
1 | (2/2) Accurately ripped
2 | (2/2) Accurately ripped
3 | (2/2) Accurately ripped
4 | (2/2) Accurately ripped
5 | (2/2) Accurately ripped
6 | (2/2) Accurately ripped
7 | (2/2) Accurately ripped
8 | (2/2) Accurately ripped
9 | (2/2) Accurately ripped
10 | (2/2) Accurately ripped
11 | (2/2) Accurately ripped
12 | (2/2) Accurately ripped
13 | (2/2) Accurately ripped
14 | (2/2) Accurately ripped
15 | (2/2) Accurately ripped
16 | (2/2) Accurately ripped
==== Log checksum CCB9EE22E2EA30F4EB79D247E75F04C04B51B33948AC3E6E9EA12B9CC2B4C2DA ====

Содержание индексной карты (.CUE)

CD1

REM GENRE Opera
REM DATE 1950
REM DISCID E3113A12
REM COMMENT "ExactAudioCopy v1.0b6"
PERFORMER "Ivanov, Talakhadze, Kozlovsk, Gribova - Bolshoi Theatre Orch. & Chorus, Melik..."
TITLE "Rubinstein - The Demon CD1"
FILE "Rubinstein - The Demon CD1.ape" WAVE
TRACK 01 AUDIO
TITLE "Prologue - Introduction"
PERFORMER "Ivanov, Talakhadze, Kozlovsk, Gribova - Bolshoi Theatre Orch. & Chorus, Melik..."
FLAGS DCP
INDEX 01 00:00:00
TRACK 02 AUDIO
TITLE "Prologue - Again above the earth the Demon is flying"
PERFORMER "Ivanov, Talakhadze, Kozlovsk, Gribova - Bolshoi Theatre Orch. & Chorus, Melik..."
FLAGS DCP
INDEX 01 01:53:68
TRACK 03 AUDIO
TITLE "Prologue - Accursed world! Despicable world!"
PERFORMER "Ivanov, Talakhadze, Kozlovsk, Gribova - Bolshoi Theatre Orch. & Chorus, Melik..."
FLAGS DCP
INDEX 01 06:40:14
TRACK 04 AUDIO
TITLE "Act I - Down to the bright Aragva we go every evening"
PERFORMER "Ivanov, Talakhadze, Kozlovsk, Gribova - Bolshoi Theatre Orch. & Chorus, Melik..."
FLAGS DCP
INDEX 01 13:38:31
TRACK 05 AUDIO
TITLE "Act I - What do I see?"
PERFORMER "Ivanov, Talakhadze, Kozlovsk, Gribova - Bolshoi Theatre Orch. & Chorus, Melik..."
FLAGS DCP
INDEX 01 17:41:02
TRACK 06 AUDIO
TITLE "Act I - Enough, enough!"
PERFORMER "Ivanov, Talakhadze, Kozlovsk, Gribova - Bolshoi Theatre Orch. & Chorus, Melik..."
FLAGS DCP
INDEX 01 18:47:67
TRACK 07 AUDIO
TITLE "Act I - Child, in your embraces"
PERFORMER "Ivanov, Talakhadze, Kozlovsk, Gribova - Bolshoi Theatre Orch. & Chorus, Melik..."
FLAGS DCP
INDEX 01 21:54:29
TRACK 08 AUDIO
TITLE "Act I - Home! Quickly!"
PERFORMER "Ivanov, Talakhadze, Kozlovsk, Gribova - Bolshoi Theatre Orch. & Chorus, Melik..."
FLAGS DCP
INDEX 01 25:21:69
TRACK 09 AUDIO
TITLE "Act I - Hey! Hey!"
PERFORMER "Ivanov, Talakhadze, Kozlovsk, Gribova - Bolshoi Theatre Orch. & Chorus, Melik..."
FLAGS DCP
INDEX 01 27:11:02
TRACK 10 AUDIO
TITLE "Act I - Equip a messenger to go"
PERFORMER "Ivanov, Talakhadze, Kozlovsk, Gribova - Bolshoi Theatre Orch. & Chorus, Melik..."
FLAGS DCP
INDEX 01 29:28:68
TRACK 11 AUDIO
TITLE "Act I - Don't worry, don't be depressed"
PERFORMER "Ivanov, Talakhadze, Kozlovsk, Gribova - Bolshoi Theatre Orch. & Chorus, Melik..."
FLAGS DCP
INDEX 01 35:52:67
TRACK 12 AUDIO
TITLE "Act I - Tomorrow, when we set off at dawn"
PERFORMER "Ivanov, Talakhadze, Kozlovsk, Gribova - Bolshoi Theatre Orch. & Chorus, Melik..."
FLAGS DCP
INDEX 01 39:23:39
TRACK 13 AUDIO
TITLE "Act I - In the darkness of night"
PERFORMER "Ivanov, Talakhadze, Kozlovsk, Gribova - Bolshoi Theatre Orch. & Chorus, Melik..."
FLAGS DCP
INDEX 01 44:47:33
TRACK 14 AUDIO
TITLE "Act I - While he was praying"
PERFORMER "Ivanov, Talakhadze, Kozlovsk, Gribova - Bolshoi Theatre Orch. & Chorus, Melik..."
FLAGS DCP
INDEX 01 50:25:35
TRACK 15 AUDIO
TITLE "Act I - Where are my servants?"
PERFORMER "Ivanov, Talakhadze, Kozlovsk, Gribova - Bolshoi Theatre Orch. & Chorus, Melik..."
FLAGS DCP
INDEX 01 54:32:52
TRACK 16 AUDIO
TITLE "Act II - Hey, Hey!"
PERFORMER "Ivanov, Talakhadze, Kozlovsk, Gribova - Bolshoi Theatre Orch. & Chorus, Melik..."
FLAGS DCP
INDEX 01 58:46:44
TRACK 17 AUDIO
TITLE "Act II -Tamara! The Prince has sent a messenger to you"
PERFORMER "Ivanov, Talakhadze, Kozlovsk, Gribova - Bolshoi Theatre Orch. & Chorus, Melik..."
FLAGS DCP
INDEX 01 61:43:27
TRACK 18 AUDIO
TITLE "Act II -Dance of the Men"
PERFORMER "Ivanov, Talakhadze, Kozlovsk, Gribova - Bolshoi Theatre Orch. & Chorus, Melik..."
FLAGS DCP
INDEX 01 65:19:47

CD2

REM GENRE Opera
REM DATE 1950
REM DISCID DF0FFA10
REM COMMENT "ExactAudioCopy v1.0b6"
PERFORMER "Ivanov, Talakhadze, Kozlovsk, Gribova - Bolshoi Theatre Orch. & Chorus, Melik..."
TITLE "Rubinstein - The Demon CD2"
FILE "Rubinstein - The Demon CD2.ape" WAVE
TRACK 01 AUDIO
TITLE "Act II - Dance of the women"
PERFORMER "Ivanov, Talakhadze, Kozlovsk, Gribova - Bolshoi Theatre Orch. & Chorus, Melik..."
FLAGS DCP
INDEX 01 00:00:00
TRACK 02 AUDIO
TITLE "Oh, woe! Alas!"
PERFORMER "Ivanov, Talakhadze, Kozlovsk, Gribova - Bolshoi Theatre Orch. & Chorus, Melik..."
FLAGS DCP
INDEX 01 05:49:66
TRACK 03 AUDIO
TITLE "Oh God. What a dreadful terrible sight!"
PERFORMER "Ivanov, Talakhadze, Kozlovsk, Gribova - Bolshoi Theatre Orch. & Chorus, Melik..."
FLAGS DCP
INDEX 01 08:20:08
TRACK 04 AUDIO
TITLE "Do not weep, child"
PERFORMER "Ivanov, Talakhadze, Kozlovsk, Gribova - Bolshoi Theatre Orch. & Chorus, Melik..."
FLAGS DCP
INDEX 01 14:04:37
TRACK 05 AUDIO
TITLE "What did he say?"
PERFORMER "Ivanov, Talakhadze, Kozlovsk, Gribova - Bolshoi Theatre Orch. & Chorus, Melik..."
FLAGS DCP
INDEX 01 17:08:31
TRACK 06 AUDIO
TITLE "On the ocean of the air"
PERFORMER "Ivanov, Talakhadze, Kozlovsk, Gribova - Bolshoi Theatre Orch. & Chorus, Melik..."
FLAGS DCP
INDEX 01 18:13:72
TRACK 07 AUDIO
TITLE "Where is he"
PERFORMER "Ivanov, Talakhadze, Kozlovsk, Gribova - Bolshoi Theatre Orch. & Chorus, Melik..."
FLAGS DCP
INDEX 01 22:33:34
TRACK 08 AUDIO
TITLE "father, Father, my soul is suffering"
PERFORMER "Ivanov, Talakhadze, Kozlovsk, Gribova - Bolshoi Theatre Orch. & Chorus, Melik..."
FLAGS DCP
INDEX 01 25:10:14
TRACK 09 AUDIO
TITLE "Act III - All Christians are asleep"
PERFORMER "Ivanov, Talakhadze, Kozlovsk, Gribova - Bolshoi Theatre Orch. & Chorus, Melik..."
FLAGS DCP
INDEX 01 32:05:40
TRACK 10 AUDIO
TITLE "The hly convent sleeps"
PERFORMER "Ivanov, Talakhadze, Kozlovsk, Gribova - Bolshoi Theatre Orch. & Chorus, Melik..."
FLAGS DCP
INDEX 01 34:56:39
TRACK 11 AUDIO
TITLE "The night is warm, the night is calm"
PERFORMER "Ivanov, Talakhadze, Kozlovsk, Gribova - Bolshoi Theatre Orch. & Chorus, Melik..."
FLAGS DCP
INDEX 01 40:32:40
TRACK 12 AUDIO
TITLE "All Christians are asleep"
PERFORMER "Ivanov, Talakhadze, Kozlovsk, Gribova - Bolshoi Theatre Orch. & Chorus, Melik..."
FLAGS DCP
INDEX 01 44:16:03
TRACK 13 AUDIO
TITLE "Long ago disturbing my thought"
PERFORMER "Ivanov, Talakhadze, Kozlovsk, Gribova - Bolshoi Theatre Orch. & Chorus, Melik..."
FLAGS DCP
INDEX 01 50:37:70
TRACK 14 AUDIO
TITLE "Whoever you are, my sad friend"
PERFORMER "Ivanov, Talakhadze, Kozlovsk, Gribova - Bolshoi Theatre Orch. & Chorus, Melik..."
FLAGS DCP
INDEX 01 53:38:18
TRACK 15 AUDIO
TITLE "Creating everything, eternally good"
PERFORMER "Ivanov, Talakhadze, Kozlovsk, Gribova - Bolshoi Theatre Orch. & Chorus, Melik..."
FLAGS DCP
INDEX 01 59:36:55
TRACK 16 AUDIO
TITLE "We hear the sinful soul"
PERFORMER "Ivanov, Talakhadze, Kozlovsk, Gribova - Bolshoi Theatre Orch. & Chorus, Melik..."
FLAGS DCP
INDEX 01 66:35:54
Доп. информация:
This work is certainly the best music by Rubinstein.
It is effective as a sound drama with pleasant songs and many ingenious orchestral/choral effects.
The drama is vivid and arresting.
Ivanov’s voice has a quality reminiscent of Sergei Leiferkus and he is the focus of the drama.
In this drama the beautiful Tamara, protected by an Angel, is desired by the Demon, but when she rebuffs him he conjures up a storm to kill Prince Goudal, her betrothed.
When he approaches her again she flees to a convent, but he follows her and promises to give up being bad if she will consent to be his.
The Angel grants Tamara death rather than be tempted, and the bitter Demon vows to be twice as bad from then on.



Показать сообщения:    

Текущее время: 02-Дек 21:15

Часовой пояс: UTC + 3


Вы не можете начинать темы
Вы не можете отвечать на сообщения
Вы не можете редактировать свои сообщения
Вы не можете удалять свои сообщения
Вы не можете голосовать в опросах
Вы не можете прикреплять файлы к сообщениям
Вы не можете скачивать файлы