Выводок / Наседка / The Brood (Дэвид Кроненберг / David Cronenberg) [1979, Канада, ужасы, фантастика, драма, BDRip-AVC] 2x AVO (Визгунов, Карцев) + Original (Eng) + Sub (Eng)


 

[Цитировать]

Выводок / Наседка / The Brood
«The Ultimate Experience Of Inner Terror»
- Страна: Канада
Жанр: ужасы, фантастика, драма
Год выпуска: 1979
Продолжительность: 01:32:12-Перевод №1: Авторский (одноголосый, закадровый) - Сергей Визгунов
Перевод №2: Авторский (одноголосый, закадровый) - Петр Карцев
Оригинальная аудиодорожка: English
Cубтитры: English (full)
Навигация по главам: присутствует - 17 глав-Режиссер: Дэвид Кроненберг / David Cronenberg
В ролях: Оливер Рид, Саманта Эггар, Арт Хиндл, Генри Бекман, Нуала Фицджералд, Синди Хиндс, Сьюзэн Хоган, Гари МакКихан, Майкл Маджи, Роберт А. Силверман-Описание: Франк Карвет обеспокоен за свою маленькую дочь. Когда он привез Кэндис на выходные из института психоплазматики, где проходит лечение ее мать Нола, то обнаружил раны на теле девочки. Он отвозит Кэндис к матери Нолы, но странное небольшое существо убивает ее, а девочку находят спящей и ничего не помнящей.
После очередного убийства полиции удается получить экземпляр таинственного киллера. По его виду становится понятно, что он искусственного происхождения. Так что же творит с людьми доктор Рэглан?-
Download sample-Качество видео: BDRip-AVC | исх. BDRemux 1080p - thx: Skywalker84
Формат: MKV-Видео: 1 152x648(16:9), 23.976 fps, H.264 ~4 400 kbps avg, 0.0.239 bit/pixel
Аудио №1: 48.0 kHz, AC3 Dolby Digital, 2/0 (L,R), ~192.00 kbps | Авторский (одноголосый, закадровый) - Сергей Визгунов
Аудио №2: 48.0 kHz, AC3 Dolby Digital, 2/0 (L,R), ~192.00 kbps | Авторский (одноголосый, закадровый) - Петр Карцев
Аудио №3: 48.0 kHz, AC3 Dolby Digital, 2/0 (L,R), ~192.00 kbps | English
Субтитры: English (full) | *.srt-

MediaInfo

General
Unique ID : 183159413937248684644856199747643433253 (0x89CB385140AAEBDFA44FB572A220E125)
Complete name : D:\Фильмы\Рипы\The Brood.1979.BDRip-AVC.eFK tRuAVC.mkv
Format : Matroska
Format version : Version 4 / Version 2
File size : 3.19 GiB
Duration : 1h 32mn
Overall bit rate : 4 960 Kbps
Movie name : Выводок / Наседка / The Brood (1979) - Release for rutracker
Encoded date : UTC 2015-09-09 09:21:18
Writing application : mkvmerge v7.6.0 ('Garden of Dreams') 64bit built on Feb 8 2015 13:04:34
Writing library : libebml v1.3.1 + libmatroska v1.4.2
Attachements : cover.png
DURATION : 01:32:12.000000000
NUMBER_OF_FRAMES : 172875
NUMBER_OF_BYTES : 132768000
_STATISTICS_WRITING_APP : mkvmerge v7.6.0 ('Garden of Dreams') 64bit built on Feb 8 2015 13:04:34
_STATISTICS_WRITING_DATE_UT : 2015-09-09 09:21:18
_STATISTICS_TAGS : BPS DURATION NUMBER_OF_FRAMES NUMBER_OF_BYTES
Video
ID : 1
Format : AVC
Format/Info : Advanced Video Codec
Format profile : High@L4.1
Format settings, CABAC : Yes
Format settings, ReFrames : 10 frames
Codec ID : V_MPEG4/ISO/AVC
Duration : 1h 32mn
Bit rate : 4 285 Kbps
Width : 1 152 pixels
Height : 648 pixels
Display aspect ratio : 16:9
Frame rate mode : Constant
Frame rate : 23.976 fps
Color space : YUV
Chroma subsampling : 4:2:0
Bit depth : 8 bits
Scan type : Progressive
Bits/(Pixel*Frame) : 0.239
Stream size : 2.76 GiB (86%)
Title : eFK tRuAVC
Writing library : x264 core 148 r2579kMod 73ae2d1
Encoding settings : cabac=1 / ref=10 / deblock=1:-3:-3 / analyse=0x3:0x113 / me=umh / subme=11 / psy=1 / fade_compensate=0.00 / psy_rd=1.00:0.00 / mixed_ref=1 / me_range=48 / chroma_me=1 / trellis=2 / 8x8dct=1 / cqm=0 / deadzone=21,11 / fast_pskip=0 / chroma_qp_offset=-2 / threads=12 / lookahead_threads=3 / sliced_threads=0 / nr=0 / decimate=1 / interlaced=0 / bluray_compat=0 / constrained_intra=0 / fgo=0 / bframes=16 / b_pyramid=2 / b_adapt=2 / b_bias=0 / direct=3 / weightb=1 / open_gop=0 / weightp=2 / keyint=250 / keyint_min=23 / scenecut=40 / intra_refresh=0 / rc_lookahead=60 / rc=crf / mbtree=0 / crf=21.1500 / qcomp=0.70 / qpmin=0 / qpmax=69 / qpstep=4 / vbv_maxrate=50000 / vbv_bufsize=62500 / crf_max=0.0 / nal_hrd=none / filler=0 / ip_ratio=1.40 / pb_ratio=1.30 / aq=3:0.80
Language : English
Default : Yes
Forced : No
Color range : Limited
Color primaries : BT.709
Transfer characteristics : BT.709
Matrix coefficients : BT.709
DURATION : 01:32:12.527000000
NUMBER_OF_FRAMES : 132648
NUMBER_OF_BYTES : 3029220971
_STATISTICS_WRITING_APP : mkvmerge v7.6.0 ('Garden of Dreams') 64bit built on Feb 8 2015 13:04:34
_STATISTICS_WRITING_DATE_UT : 2015-09-09 09:21:18
_STATISTICS_TAGS : BPS DURATION NUMBER_OF_FRAMES NUMBER_OF_BYTES
Audio #1
ID : 2
Format : AC-3
Format/Info : Audio Coding 3
Mode extension : CM (complete main)
Format settings, Endianness : Big
Codec ID : A_AC3
Duration : 1h 32mn
Bit rate mode : Constant
Bit rate : 192 Kbps
Channel(s) : 2 channels
Channel positions : Front: L R
Sampling rate : 48.0 KHz
Compression mode : Lossy
Stream size : 127 MiB (4%)
Title : AVO (Визгунов)
Language : Russian
Default : Yes
Forced : No
Audio #2
ID : 3
Format : AC-3
Format/Info : Audio Coding 3
Mode extension : CM (complete main)
Format settings, Endianness : Big
Codec ID : A_AC3
Duration : 1h 32mn
Bit rate mode : Constant
Bit rate : 192 Kbps
Channel(s) : 2 channels
Channel positions : Front: L R
Sampling rate : 48.0 KHz
Compression mode : Lossy
Stream size : 127 MiB (4%)
Title : AVO (Карцев)
Language : Russian
Default : No
Forced : No
Audio #3
ID : 4
Format : AC-3
Format/Info : Audio Coding 3
Mode extension : CM (complete main)
Format settings, Endianness : Big
Codec ID : A_AC3
Duration : 1h 32mn
Bit rate mode : Constant
Bit rate : 192 Kbps
Channel(s) : 2 channels
Channel positions : Front: L R
Sampling rate : 48.0 KHz
Compression mode : Lossy
Stream size : 127 MiB (4%)
Language : English
Default : No
Forced : No
Text
ID : 5
Format : UTF-8
Codec ID : S_TEXT/UTF8
Codec ID/Info : UTF-8 Plain Text
Title : full
Language : English
Default : No
Forced : No
Menu
00:00:00.000 : en:00:00:00.000
00:06:15.375 : en:00:06:15.375
00:11:17.218 : en:00:11:17.218
00:17:45.147 : en:00:17:45.147
00:24:20.417 : en:00:24:20.417
00:29:42.990 : en:00:29:42.990
00:34:26.856 : en:00:34:26.856
00:40:22.128 : en:00:40:22.128
00:46:47.013 : en:00:46:47.013
00:52:58.550 : en:00:52:58.550
00:57:14.181 : en:00:57:14.181
01:03:08.702 : en:01:03:08.702
01:09:31.959 : en:01:09:31.959
01:13:29.196 : en:01:13:29.196
01:19:21.298 : en:01:19:21.298
01:26:21.385 : en:01:26:21.385
01:30:43.396 : en:01:30:43.396

x264 log

x264 [info]: frame I:834 Avg QP:20.51 size: 79500
x264 [info]: frame P:22856 Avg QP:21.81 size: 41433
x264 [info]: frame B:108958 Avg QP:23.80 size: 18502
x264 [info]: consecutive B-frames: 0.9% 0.8% 2.4% 8.3% 13.5% 45.1% 11.1% 3.3% 6.2% 4.6% 2.0% 1.0% 0.4% 0.2% 0.1% 0.0% 0.1%
x264 [info]: mb I I16..4: 4.2% 85.2% 10.5%
x264 [info]: mb P I16..4: 0.2% 11.3% 0.6% P16..4: 31.4% 37.6% 13.7% 0.0% 0.0% skip: 5.1%
x264 [info]: mb B I16..4: 0.0% 1.7% 0.1% B16..8: 38.8% 20.6% 5.0% direct: 6.8% skip:27.0% L0:45.3% L1:46.0% BI: 8.7%
x264 [info]: 8x8 transform intra:92.8% inter:59.3%
x264 [info]: direct mvs spatial:99.9% temporal:0.1%
x264 [info]: coded y,uvDC,uvAC intra: 94.7% 70.4% 28.6% inter: 36.9% 18.1% 0.6%
x264 [info]: i16 v,h,dc,p: 47% 14% 11% 28%
x264 [info]: i8 v,h,dc,ddl,ddr,vr,hd,vl,hu: 11% 5% 10% 11% 15% 14% 12% 12% 11%
x264 [info]: i4 v,h,dc,ddl,ddr,vr,hd,vl,hu: 15% 5% 11% 8% 14% 14% 12% 10% 10%
x264 [info]: i8c dc,h,v,p: 30% 27% 23% 19%
x264 [info]: Weighted P-Frames: Y:4.8% UV:2.4%
x264 [info]: ref P L0: 37.1% 10.9% 20.7% 7.4% 6.9% 4.7% 4.8% 2.5% 2.6% 2.2% 0.1% 0.0%
x264 [info]: ref B L0: 64.1% 14.1% 7.8% 4.3% 3.3% 2.8% 2.3% 0.9% 0.3%
x264 [info]: ref B L1: 90.9% 9.1%
x264 [info]: kb/s:4380.23
x264 [total]: encoded 132648 frames, 6.47 fps, 4380.23 kb/s, duration 5:41:32.32

Comparison

Source

Encode



Показать сообщения:    

Текущее время: 10-Дек 08:05

Часовой пояс: UTC + 3


Вы не можете начинать темы
Вы не можете отвечать на сообщения
Вы не можете редактировать свои сообщения
Вы не можете удалять свои сообщения
Вы не можете голосовать в опросах
Вы не можете прикреплять файлы к сообщениям
Вы не можете скачивать файлы