(Classical, Vocal) Schubert - Lieder (Lynda Russell, soprano - Peter Hilll, piano, David Campbell, clarinet) - 1996, APE (image+.cue) lossless


 

[Цитировать]

Franz Schubert - Lieder
Жанр: Classical, Vocal
Страна-производитель диска: Germany
Год издания диска: 1996
Издатель (лейбл): Naxos
Номер по каталогу: 8.553113
Дата записи: 1994
Аудиокодек: APE
Тип рипа: image+.cue
Битрейт аудио: lossless
Продолжительность: 62'23
Источник: собственный рип
Наличие сканов в содержимом раздачи: да
Треклист:
Franz Schubert (1797 - 1828)
[1] Ganymed D. 544 (Op. 19, No.3)
[2] Liebhaber in allen Gestalten D. 558
[3] Nacht und Träume D. 827
[4] Geheimes D. 719 (Op. 14, No.2)
[5] Abendstern D. 806
[6] Der Hirt auf dem Felsen D. 965 (Op. 129)
[7] Suleika D. 720 (Op. 14, No.1)
[8] Seligkeit D.433
[9] Wiegenlied D. 498 (Op. 98, No.2)
[10] Gretchen am Spinnrade D.118 (Op. 2)
[11] An die Entfemte D. 765
[12] lm Frühling D. 882 (Op. 101, No.1)
[13] Suleikas Zweiter Gesang D. 717 (Op. 31)
[14] Du bist die Ruh D. 776 (Op. 59, No.3)
[15] Lied der Mignon D. 877/4 (?)
[16] Nachtviolen D. 752
[17] Der Musensohn D. 764 (Op. 92, No.1)
[18] Die Forelle D. 550
Исполнители:
Lynda Russell, soprano
Peter Hill, piano
David Campbell, clarinet

Лог создания рипа

Exact Audio Copy V1.0 beta 3 from 29. August 2011
EAC extraction logfile from 3. August 2014, 17:51
Schubert / Lieder (Songs)
Used drive : TSSTcorpCDDVDW SE-208AB Adapter: 1 ID: 1
Read mode : Secure
Utilize accurate stream : Yes
Defeat audio cache : Yes
Make use of C2 pointers : No
Read offset correction : 6
Overread into Lead-In and Lead-Out : No
Fill up missing offset samples with silence : Yes
Delete leading and trailing silent blocks : No
Null samples used in CRC calculations : Yes
Used interface : Native Win32 interface for Win NT & 2000
Used output format : Monkey's Audio Lossless Encoder
Selected bitrate : High Lossless Compression
Quality : High
Add ID3 tag : No
Command line compressor : C:\Program Files (x86)\Exact Audio Copy\MAC\MAC.exe
TOC of the extracted CD
Track | Start | Length | Start sector | End sector
---------------------------------------------------------
1 | 0:00.00 | 4:15.67 | 0 | 19191
2 | 4:15.67 | 1:13.55 | 19192 | 24721
3 | 5:29.47 | 3:52.65 | 24722 | 42186
4 | 9:22.37 | 1:41.58 | 42187 | 49819
5 | 11:04.20 | 2:32.65 | 49820 | 61284
6 | 13:37.10 | 10:40.50 | 61285 | 109334
7 | 24:17.60 | 5:11.07 | 109335 | 132666
8 | 29:28.67 | 1:52.28 | 132667 | 141094
9 | 31:21.20 | 2:32.17 | 141095 | 152511
10 | 33:53.37 | 3:21.23 | 152512 | 167609
11 | 37:14.60 | 3:17.35 | 167610 | 182419
12 | 40:32.20 | 4:15.32 | 182420 | 201576
13 | 44:47.52 | 4:05.05 | 201577 | 219956
14 | 48:52.57 | 4:17.03 | 219957 | 239234
15 | 53:09.60 | 3:03.22 | 239235 | 252981
16 | 56:13.07 | 3:01.18 | 252982 | 266574
17 | 59:14.25 | 2:03.07 | 266575 | 275806
18 | 61:17.32 | 2:04.58 | 275807 | 285164
Range status and errors
Selected range
Filename D:\EAC\Schubert - Lieder (Songs).wav
Peak level 93.8 %
Extraction speed 4.5 X
Range quality 100.0 %
Test CRC 5BCF6CCD
Copy CRC 5BCF6CCD
Copy OK
No errors occurred
AccurateRip summary
Track 1 accurately ripped (confidence 2) [3C15B9BE] (AR v2)
Track 2 accurately ripped (confidence 2) [09E6AB80] (AR v2)
Track 3 accurately ripped (confidence 2) [B0523927] (AR v2)
Track 4 accurately ripped (confidence 2) [99F0C595] (AR v2)
Track 5 accurately ripped (confidence 2) [B2E7ABD5] (AR v2)
Track 6 accurately ripped (confidence 2) [757444CB] (AR v2)
Track 7 accurately ripped (confidence 2) [AAAD5CB5] (AR v2)
Track 8 accurately ripped (confidence 2) [714BF0D9] (AR v2)
Track 9 accurately ripped (confidence 2) [10B0C363] (AR v2)
Track 10 accurately ripped (confidence 2) [C0ECFB5C] (AR v2)
Track 11 accurately ripped (confidence 2) [EAA7321A] (AR v2)
Track 12 accurately ripped (confidence 2) [2E36AF84] (AR v2)
Track 13 accurately ripped (confidence 2) [520FB333] (AR v2)
Track 14 accurately ripped (confidence 2) [E2DAC008] (AR v2)
Track 15 accurately ripped (confidence 2) [F1C69C17] (AR v2)
Track 16 accurately ripped (confidence 2) [9413DDC2] (AR v2)
Track 17 accurately ripped (confidence 2) [4891E1CD] (AR v2)
Track 18 accurately ripped (confidence 2) [A0BF0C44] (AR v2)
All tracks accurately ripped
End of status report
---- CUETools DB Plugin V2.1.3
[CTDB TOCID: ALqskNnzvbtt74VNM2VUY2.Dpb8-] found, Submit result: ALqskNnzvbtt74VNM2VUY2.Dpb8- has been confirmed
[754c7e9c] (2/2) Accurately ripped
==== Log checksum BDAA2EE828483F0E9E8077B409A457E6C87B11B22B468835622C9B97238D4ABF ====

Содержание индексной карты (.CUE)

REM GENRE V0cal
REM DATE 1994
REM DISCID 1C0EDA12
REM COMMENT "ExactAudioCopy v1.0b3"
CATALOG 0000000000000
PERFORMER "Schubert"
TITLE "Lieder (Songs)"
FILE "Schubert - Lieder (Songs).ape" WAVE
TRACK 01 AUDIO
TITLE "Ganymed D.544"
PERFORMER "Schubert"
INDEX 01 00:00:00
TRACK 02 AUDIO
TITLE "Liebhaber in allen Gestalten"
PERFORMER "Schubert"
INDEX 00 04:13:32
INDEX 01 04:15:67
TRACK 03 AUDIO
TITLE "Nacht und Träume D.827"
PERFORMER "Schubert"
INDEX 00 05:27:34
INDEX 01 05:29:47
TRACK 04 AUDIO
TITLE "Geheimes D.719"
PERFORMER "Schubert"
INDEX 00 09:18:26
INDEX 01 09:22:37
TRACK 05 AUDIO
TITLE "Abendstern D. 806"
PERFORMER "Schubert"
INDEX 00 11:00:22
INDEX 01 11:04:20
TRACK 06 AUDIO
TITLE "Der Hirt auf dem Felsen D.965"
PERFORMER "Schubert"
INDEX 00 13:32:43
INDEX 01 13:37:10
TRACK 07 AUDIO
TITLE "Suleika D.433"
PERFORMER "Schubert"
INDEX 00 24:13:37
INDEX 01 24:17:60
TRACK 08 AUDIO
TITLE "Seligkeit D.433"
PERFORMER "Schubert"
INDEX 00 29:24:27
INDEX 01 29:28:67
TRACK 09 AUDIO
TITLE "Wiegenlied D.498"
PERFORMER "Schubert"
INDEX 00 31:18:35
INDEX 01 31:21:20
TRACK 10 AUDIO
TITLE "Gretchen am Spinnrade D.118"
PERFORMER "Schubert"
INDEX 00 33:49:32
INDEX 01 33:53:37
TRACK 11 AUDIO
TITLE "An die Entfernte D.765"
PERFORMER "Schubert"
INDEX 00 37:09:10
INDEX 01 37:14:60
TRACK 12 AUDIO
TITLE "Im Frühling D.882"
PERFORMER "Schubert"
INDEX 00 40:26:22
INDEX 01 40:32:20
TRACK 13 AUDIO
TITLE "Suleikas zweiter Gesang D.717"
PERFORMER "Schubert"
INDEX 00 44:44:27
INDEX 01 44:47:52
TRACK 14 AUDIO
TITLE "Du bist die Ruh D.776"
PERFORMER "Schubert"
INDEX 00 48:49:25
INDEX 01 48:52:57
TRACK 15 AUDIO
TITLE "Lied der Mignon D.877"
PERFORMER "Schubert"
INDEX 00 53:05:04
INDEX 01 53:09:60
TRACK 16 AUDIO
TITLE "Nachtviolen D.752"
PERFORMER "Schubert"
INDEX 00 56:10:33
INDEX 01 56:13:07
TRACK 17 AUDIO
TITLE "Der Musensohn D.764"
PERFORMER "Schubert"
INDEX 00 59:10:22
INDEX 01 59:14:25
TRACK 18 AUDIO
TITLE "Die Forelle D.550"
PERFORMER "Schubert"
INDEX 00 61:13:47
INDEX 01 61:17:32



Показать сообщения:    

Текущее время: 11-Дек 12:56

Часовой пояс: UTC + 3


Вы не можете начинать темы
Вы не можете отвечать на сообщения
Вы не можете редактировать свои сообщения
Вы не можете удалять свои сообщения
Вы не можете голосовать в опросах
Вы не можете прикреплять файлы к сообщениям
Вы не можете скачивать файлы