(Classical) Игорь Стравинский · Chamber Works & Rarities / Ragtime, Octet, Septet, L’Histoire du soldat, Concertos, Danses, etc. (В. и Д. Ашкенази, А. Гаврилов, C. Dutoit, R. Chailly, E. Ansermet, etc.) · 2003, FLAC (tracks+.cue) lossless


 

[Цитировать]

Игорь Стравинский
Chamber Works & Rarities

Жанр: classical
Страна-производитель диска: Великобритания
Год издания диска: 2003
Издатель: Decca
Номер по каталогу: 473 810-2
Даты записей: ?
Аудиокодек: FLAC
Тип рипа: tracks+.cue
Битрейт аудио: lossless
Продолжительность: 02:35:12
Источник: what.cd
Буклет в содержимом раздачи отсутствует
Исполнители:
CD 1. 1–18: European Soloists Ensamble · Dmitri Ashkenazy clarinet · Vladimir Ashkenazy piano and director
CD 1. 19–22: Vladimir Ashkenazy, Andrei Gavrilov pianos
CD 2. 1–11: Sinfonietta de Montréal · Charles Dutoit
CD 2. 12–15: Orchestre symphonique de Montréal · Charles Dutoit
CD 2. 16–19: The Cleveland Orchestra · Riccardo Chailly
CD 2. 20–27: L’Orchestre de la Suisse Romande · Ernest Ansermet

CD 1

01. Ragtime for 11 instruments (4:38)
Octet for wind instruments
02. I. Sinfonia (3:47)
03. II. Tema con Variazioni (7:01)
04. III. Finale (3:21)
Three Pieces for clarinet solo
05. I. Sempre piano e molto tranquilo ♪=52 (1:56)
06. II. ♪=168 (1:05)
07. III. ♪=160 (1:16)
L’Histoire du soldat. Suite for violin, clarinet and piano
08. Marche du soldat (1:28)
09. Le violon du soldat (2:31)
10. Petit concert (2:44)
11. Tango / Valse / Ragtime (6:07)
12. La danse du diable (1:29)
13. Pastorale for viollin, oboe cor anglais, clarinet and basoon (3:02)
14. Concertino for 12 instruments (6:06)
Septet
15. I. ♪=88 (2:50)
16. II. Passacaglia (4:50)
17. III. Gigue (3:20)
18. Epitaphium for flute, clarinet and harp “Für das Grabmal des Prinzen Max Egon zu Fürstenberg” (1:32)
Concerto for two pianos
19. I. Con moto (5:32)
20. II. Notturno (5:17)
21. III. Quattro variazioni (4:17)
22. IV. Preludio e fuga (4:35)
Продолжительность: 01:18:44

Лог создания рипа

Exact Audio Copy V1.0 beta 3 from 29. August 2011
EAC extraction logfile from 16. March 2012, 14:31
Vladimir Ashkenazy / Chamber Works and Rarities
Used drive : Optiarc DVD+-RW AD-7640A Adapter: 1 ID: 0
Read mode : Secure
Utilize accurate stream : Yes
Defeat audio cache : Yes
Make use of C2 pointers : No
Read offset correction : 6
Overread into Lead-In and Lead-Out : No
Fill up missing offset samples with silence : Yes
Delete leading and trailing silent blocks : No
Null samples used in CRC calculations : Yes
Used interface : Native Win32 interface for Win NT & 2000
Gap handling : Appended to previous track
Used output format : User Defined Encoder
Selected bitrate : 1024 kBit/s
Quality : High
Add ID3 tag : No
Command line compressor : C:\Program Files (x86)\Exact Audio Copy\Flac\flac.exe
Additional command line options : -8 -V -T "ARTIST=%artist%" -T "TITLE=%title%" -T "ALBUM=%albumtitle%" -T "DATE=%year%" -T "TRACKNUMBER=%tracknr%" -T "GENRE=%genre%" -T "PERFORMER=%albuminterpret%" -T "COMPOSER=%composer%" %haslyrics%--tag-from-file=LYRICS="%lyricsfile%"%haslyrics% -T "ALBUMARTIST=%albumartist%" -T "DISCNUMBER=%cdnumber%" -T "TOTALDISCS=%totalcds%" -T "TOTALTRACKS=%numtracks%" -T "COMMENT=%comment%" %source% -o %dest%
TOC of the extracted CD
Track | Start | Length | Start sector | End sector
---------------------------------------------------------
1 | 0:00.00 | 4:38.00 | 0 | 20849
2 | 4:38.00 | 3:47.00 | 20850 | 37874
3 | 8:25.00 | 7:00.50 | 37875 | 69424
4 | 15:25.50 | 3:21.25 | 69425 | 84524
5 | 18:47.00 | 1:56.00 | 84525 | 93224
6 | 20:43.00 | 1:05.00 | 93225 | 98099
7 | 21:48.00 | 1:16.27 | 98100 | 103826
8 | 23:04.27 | 1:27.48 | 103827 | 110399
9 | 24:32.00 | 2:31.00 | 110400 | 121724
10 | 27:03.00 | 2:44.00 | 121725 | 134024
11 | 29:47.00 | 6:07.00 | 134025 | 161549
12 | 35:54.00 | 1:29.00 | 161550 | 168224
13 | 37:23.00 | 3:02.00 | 168225 | 181874
14 | 40:25.00 | 6:06.00 | 181875 | 209324
15 | 46:31.00 | 2:50.00 | 209325 | 222074
16 | 49:21.00 | 4:50.27 | 222075 | 243851
17 | 54:11.27 | 3:19.48 | 243852 | 258824
18 | 57:31.00 | 1:32.05 | 258825 | 265729
19 | 59:03.05 | 5:31.68 | 265730 | 290622
20 | 64:34.73 | 5:17.16 | 290623 | 314413
21 | 69:52.14 | 4:17.20 | 314414 | 333708
22 | 74:09.34 | 4:34.48 | 333709 | 354306
Track 1
Filename E:\EAC Rips\Igor Stravinsky, Vladimir Ashkenazy, VO, VD - Chamber Works & Rarities (2003) [FLAC]\CD1\01 - Ragtime for 11 players.wav
Pre-gap length 0:00:02.00
Peak level 99.9 %
Extraction speed 1.3 X
Track quality 100.0 %
Test CRC 1751CD5F
Copy CRC 1751CD5F
Accurately ripped (confidence 9) [B24A20B2] (AR v1)
Copy OK
Track 2
Filename E:\EAC Rips\Igor Stravinsky, Vladimir Ashkenazy, VO, VD - Chamber Works & Rarities (2003) [FLAC]\CD1\02 - Octet for wind instruments. I. Sinfonia.wav
Pre-gap length 0:00:07.01
Peak level 70.2 %
Extraction speed 1.3 X
Track quality 100.0 %
Test CRC 01DF2013
Copy CRC 01DF2013
Accurately ripped (confidence 9) [B68D547A] (AR v1)
Copy OK
Track 3
Filename E:\EAC Rips\Igor Stravinsky, Vladimir Ashkenazy, VO, VD - Chamber Works & Rarities (2003) [FLAC]\CD1\03 - Octet for wind instruments. II. Tema con Variazioni.wav
Peak level 96.1 %
Extraction speed 1.6 X
Track quality 100.0 %
Test CRC 90EA2486
Copy CRC 90EA2486
Accurately ripped (confidence 9) [B2108979] (AR v1)
Copy OK
Track 4
Filename E:\EAC Rips\Igor Stravinsky, Vladimir Ashkenazy, VO, VD - Chamber Works & Rarities (2003) [FLAC]\CD1\04 - Octet for wind instruments. III. Finale.wav
Peak level 53.0 %
Extraction speed 1.5 X
Track quality 100.0 %
Test CRC 247601E8
Copy CRC 247601E8
Accurately ripped (confidence 9) [6BB3E896] (AR v1)
Copy OK
Track 5
Filename E:\EAC Rips\Igor Stravinsky, Vladimir Ashkenazy, VO, VD - Chamber Works & Rarities (2003) [FLAC]\CD1\05 - Three Pieces for clarinet solo. I. Sempre piano e molto tranquillo (52).wav
Peak level 7.9 %
Extraction speed 1.4 X
Track quality 100.0 %
Test CRC F2FDC563
Copy CRC F2FDC563
Accurately ripped (confidence 9) [128285C4] (AR v1)
Copy OK
Track 6
Filename E:\EAC Rips\Igor Stravinsky, Vladimir Ashkenazy, VO, VD - Chamber Works & Rarities (2003) [FLAC]\CD1\06 - Three Pieces for clarinet solo. II. (168).wav
Peak level 28.5 %
Extraction speed 1.2 X
Track quality 100.0 %
Test CRC 3138BC82
Copy CRC 3138BC82
Accurately ripped (confidence 9) [77EF56BC] (AR v1)
Copy OK
Track 7
Filename E:\EAC Rips\Igor Stravinsky, Vladimir Ashkenazy, VO, VD - Chamber Works & Rarities (2003) [FLAC]\CD1\07 - Three Pieces for clarinet solo. III. (160).wav
Peak level 36.0 %
Extraction speed 1.0 X
Track quality 99.8 %
Test CRC BD9C882C
Copy CRC BD9C882C
Accurately ripped (confidence 9) [B27C889B] (AR v1)
Copy OK
Track 8
Filename E:\EAC Rips\Igor Stravinsky, Vladimir Ashkenazy, VO, VD - Chamber Works & Rarities (2003) [FLAC]\CD1\08 - The Soldiers Tale - Suite for violin, clarinet and piano. The Soldiers March.wav
Peak level 66.3 %
Extraction speed 1.1 X
Track quality 99.8 %
Test CRC 28B4C0CD
Copy CRC 28B4C0CD
Accurately ripped (confidence 9) [3C22F622] (AR v1)
Copy OK
Track 9
Filename E:\EAC Rips\Igor Stravinsky, Vladimir Ashkenazy, VO, VD - Chamber Works & Rarities (2003) [FLAC]\CD1\09 - The Soldiers Tale - Suite for violin, clarinet and piano. The Soldiers Violin.wav
Peak level 31.1 %
Extraction speed 1.6 X
Track quality 100.0 %
Test CRC F86734B5
Copy CRC F86734B5
Accurately ripped (confidence 9) [0DF0696E] (AR v1)
Copy OK
Track 10
Filename E:\EAC Rips\Igor Stravinsky, Vladimir Ashkenazy, VO, VD - Chamber Works & Rarities (2003) [FLAC]\CD1\10 - The Soldiers Tale - Suite for violin, clarinet and piano. Little concert.wav
Peak level 47.1 %
Extraction speed 1.5 X
Track quality 99.9 %
Test CRC A280ADC5
Copy CRC A280ADC5
Accurately ripped (confidence 9) [D4549C10] (AR v1)
Copy OK
Track 11
Filename E:\EAC Rips\Igor Stravinsky, Vladimir Ashkenazy, VO, VD - Chamber Works & Rarities (2003) [FLAC]\CD1\11 - The Soldiers Tale - Suite for violin, clarinet and piano. Tango - Waltz - Ragtime.wav
Peak level 34.1 %
Extraction speed 2.0 X
Track quality 100.0 %
Test CRC 0942B786
Copy CRC 0942B786
Accurately ripped (confidence 9) [92FFCF43] (AR v1)
Copy OK
Track 12
Filename E:\EAC Rips\Igor Stravinsky, Vladimir Ashkenazy, VO, VD - Chamber Works & Rarities (2003) [FLAC]\CD1\12 - The Soldiers Tale - Suite for violin, clarinet and piano. The Devils Dance.wav
Peak level 53.4 %
Extraction speed 1.6 X
Track quality 100.0 %
Test CRC FB7D4E92
Copy CRC FB7D4E92
Accurately ripped (confidence 9) [26F8B382] (AR v1)
Copy OK
Track 13
Filename E:\EAC Rips\Igor Stravinsky, Vladimir Ashkenazy, VO, VD - Chamber Works & Rarities (2003) [FLAC]\CD1\13 - Pastorale for viollin, oboe cor anglais, clarinet and basoon.wav
Peak level 13.9 %
Extraction speed 1.9 X
Track quality 100.0 %
Test CRC EA09686B
Copy CRC EA09686B
Accurately ripped (confidence 9) [5CE5F231] (AR v1)
Copy OK
Track 14
Filename E:\EAC Rips\Igor Stravinsky, Vladimir Ashkenazy, VO, VD - Chamber Works & Rarities (2003) [FLAC]\CD1\14 - Concertino for 12 instruments.wav
Peak level 58.8 %
Extraction speed 2.2 X
Track quality 100.0 %
Test CRC CC43D2F3
Copy CRC CC43D2F3
Accurately ripped (confidence 9) [E9252581] (AR v1)
Copy OK
Track 15
Filename E:\EAC Rips\Igor Stravinsky, Vladimir Ashkenazy, VO, VD - Chamber Works & Rarities (2003) [FLAC]\CD1\15 - Septet. I. (88).wav
Peak level 54.5 %
Extraction speed 1.7 X
Track quality 99.9 %
Test CRC 07BD4290
Copy CRC 07BD4290
Accurately ripped (confidence 9) [12CEF17E] (AR v1)
Copy OK
Track 16
Filename E:\EAC Rips\Igor Stravinsky, Vladimir Ashkenazy, VO, VD - Chamber Works & Rarities (2003) [FLAC]\CD1\16 - Septet. II. Passacaglia.wav
Peak level 26.8 %
Extraction speed 2.3 X
Track quality 100.0 %
Test CRC 049C8CBA
Copy CRC 049C8CBA
Accurately ripped (confidence 9) [CBD67F3B] (AR v1)
Copy OK
Track 17
Filename E:\EAC Rips\Igor Stravinsky, Vladimir Ashkenazy, VO, VD - Chamber Works & Rarities (2003) [FLAC]\CD1\17 - Septet. III. Gigue.wav
Peak level 46.3 %
Extraction speed 2.2 X
Track quality 100.0 %
Test CRC CF42C9AF
Copy CRC CF42C9AF
Accurately ripped (confidence 9) [14E6F344] (AR v1)
Copy OK
Track 18
Filename E:\EAC Rips\Igor Stravinsky, Vladimir Ashkenazy, VO, VD - Chamber Works & Rarities (2003) [FLAC]\CD1\18 - Epitaphium for flute, clarinet and harp ''Für das Gabmal des Prinzen Max Egon zu Fürstenberg''.wav
Peak level 11.8 %
Extraction speed 1.9 X
Track quality 100.0 %
Test CRC 8EF37B90
Copy CRC 8EF37B90
Accurately ripped (confidence 9) [37F60B71] (AR v1)
Copy OK
Track 19
Filename E:\EAC Rips\Igor Stravinsky, Vladimir Ashkenazy, VO, VD - Chamber Works & Rarities (2003) [FLAC]\CD1\19 - Concerto for two pianos. I. Con moto.wav
Pre-gap length 0:00:02.96
Peak level 73.6 %
Extraction speed 2.5 X
Track quality 100.0 %
Test CRC 680DAB1D
Copy CRC 680DAB1D
Accurately ripped (confidence 9) [3B211F3B] (AR v1)
Copy OK
Track 20
Filename E:\EAC Rips\Igor Stravinsky, Vladimir Ashkenazy, VO, VD - Chamber Works & Rarities (2003) [FLAC]\CD1\20 - Concerto for two pianos. II. Notturno.wav
Peak level 28.5 %
Extraction speed 2.3 X
Track quality 99.9 %
Test CRC 683D9509
Copy CRC 683D9509
Cannot be verified as accurate (confidence 9) [08A6E73B], AccurateRip returned [13195233] (AR v2)
Copy OK
Track 21
Filename E:\EAC Rips\Igor Stravinsky, Vladimir Ashkenazy, VO, VD - Chamber Works & Rarities (2003) [FLAC]\CD1\21 - Concerto for two pianos. III. Quattro variazioni.wav
Peak level 73.9 %
Extraction speed 2.3 X
Track quality 99.9 %
Test CRC 99E0F3FD
Copy CRC 99E0F3FD
Cannot be verified as accurate (confidence 9) [4DEB5045], AccurateRip returned [8E657792] (AR v2)
Copy OK
Track 22
Filename E:\EAC Rips\Igor Stravinsky, Vladimir Ashkenazy, VO, VD - Chamber Works & Rarities (2003) [FLAC]\CD1\22 - Concerto for two pianos. IV. Preludio e fuga.wav
Peak level 74.1 %
Extraction speed 2.6 X
Track quality 100.0 %
Test CRC 303449B5
Copy CRC 303449B5
Accurately ripped (confidence 8) [97290D73] (AR v1)
Copy OK
20 track(s) accurately ripped
2 track(s) could not be verified as accurate
Some tracks could not be verified as accurate
No errors occurred
End of status report
---- CUETools DB Plugin V2.1.3
[CTDB TOCID: OipA_Wc6ApEODPp_m94OiAdju1Y-] found, Submit result: OipA_Wc6ApEODPp_m94OiAdju1Y- has been uploaded
[a9311c34] (1/1) Differs in 301 samples @68:39:70,70:15:69-70:15:70,76:31:34,76:42:39,76:52:52,77:11:42,77:28:27,77:30:12,77:30:35,77:31:72,77:32:20,77:33:57,77:34:27,77:36:12-77:36:13,77:38:20,77:38:42,77:39:35,77:42:58,77:46:06,77:46:51,77:50:67,77:52:07,77:53:00,78:00:17,78:01:54,78:02:02,78:02:24,78:02:47,78:02:69-78:02:70,78:03:40,78:03:63,78:04:10,78:04:55,78:05:70-78:05:71,78:11:05,78:23:09,78:39:09
You can use CUETools to repair this rip.
==== Log checksum C0427DE035D4F85F706E43B957CD96D3269C082457FBF5D8974764715D79AB03 ====

Содержание индексной карты (.CUE)

REM DATE 2003
REM DISCID 4A127416
REM COMMENT "ExactAudioCopy v1.0b3"
CATALOG 0028947381129
PERFORMER "Vladimir Ashkenazy"
TITLE "Chamber Works & Rarities"
FILE "01. Ragtime for 11 instruments.wav" WAVE
TRACK 01 AUDIO
TITLE "Ragtime for 11 instruments"
PERFORMER "Vladimir Ashkenazy"
ISRC GAU@79411500
INDEX 01 00:00:00
TRACK 02 AUDIO
TITLE "I. Sinfonia"
PERFORMER "Vladimir Ashkenazy"
ISRC GAU@79411511
INDEX 00 04:30:74
FILE "02. Octet for wind instruments · I. Sinfonia.wav" WAVE
INDEX 01 00:00:00
FILE "03. Octet for wind instruments · II. Tema con Variazioni.wav" WAVE
TRACK 03 AUDIO
TITLE "II. Tema con Variazioni"
PERFORMER "Vladimir Ashkenazy"
ISRC GAU@79411512
INDEX 01 00:00:00
FILE "04. Octet for wind instruments · III. Finale.wav" WAVE
TRACK 04 AUDIO
TITLE "III. Finale"
PERFORMER "Vladimir Ashkenazy"
ISRC GAU@79411513
INDEX 01 00:00:00
FILE "05. Three Pieces for clarinet solo · I. Sempre piano e molto tranquilo ♪=52.wav" WAVE
TRACK 05 AUDIO
TITLE "I. Sempre piano e molto tranquilo ♪=52"
PERFORMER "Vladimir Ashkenazy"
ISRC GAU@79411521
INDEX 01 00:00:00
FILE "06. Three Pieces for clarinet solo · II. ♪=168.wav" WAVE
TRACK 06 AUDIO
TITLE "II. ♪=168"
PERFORMER "Vladimir Ashkenazy"
ISRC GAU@79411522
INDEX 01 00:00:00
FILE "07. Three Pieces for clarinet solo · III. ♪=160.wav" WAVE
TRACK 07 AUDIO
TITLE "III. ♪=160"
PERFORMER "Vladimir Ashkenazy"
ISRC GAU@79411523
INDEX 01 00:00:00
FILE "08. L’Histoire du soldat. Suite for violin, clarinet and piano · Marche du soldat.wav" WAVE
TRACK 08 AUDIO
TITLE "Marche du soldat"
PERFORMER "Vladimir Ashkenazy"
ISRC GAU@79411531
INDEX 01 00:00:00
FILE "09. L’Histoire du soldat. Suite for violin, clarinet and piano · Le violon du soldat.wav" WAVE
TRACK 09 AUDIO
TITLE "Le violon du soldat"
PERFORMER "Vladimir Ashkenazy"
ISRC GAU@79411532
INDEX 01 00:00:00
FILE "10. L’Histoire du soldat. Suite for violin, clarinet and piano · Petit concert.wav" WAVE
TRACK 10 AUDIO
TITLE "Petit concert"
PERFORMER "Vladimir Ashkenazy"
ISRC GAU@79411533
INDEX 01 00:00:00
FILE "11. L’Histoire du soldat. Suite for violin, clarinet and piano · Tango — Valse — Ragtime.wav" WAVE
TRACK 11 AUDIO
TITLE "Tango / Valse / Ragtime"
PERFORMER "Vladimir Ashkenazy"
ISRC GAU@79411534
INDEX 01 00:00:00
FILE "12. L’Histoire du soldat. Suite for violin, clarinet and piano · La danse du diable.wav" WAVE
TRACK 12 AUDIO
TITLE "La danse du diable"
PERFORMER "Vladimir Ashkenazy"
ISRC GAU@79411535
INDEX 01 00:00:00
FILE "13. Pastorale for viollin, oboe cor anglais, clarinet and basoon.wav" WAVE
TRACK 13 AUDIO
TITLE "Pastorale for viollin, oboe cor anglais, clarinet and basoon"
PERFORMER "Vladimir Ashkenazy"
ISRC GAU@79411540
INDEX 01 00:00:00
FILE "14. Concertino for 12 instruments.wav" WAVE
TRACK 14 AUDIO
TITLE "Concertino for 12 instruments"
PERFORMER "Vladimir Ashkenazy"
ISRC GAU@79411550
INDEX 01 00:00:00
FILE "15. Septet · I. ♪=88.wav" WAVE
TRACK 15 AUDIO
TITLE "I. ♪=88"
PERFORMER "Vladimir Ashkenazy"
ISRC GAU@79411561
INDEX 01 00:00:00
FILE "16. Septet · II. Passacaglia.wav" WAVE
TRACK 16 AUDIO
TITLE "II. Passacaglia"
PERFORMER "Vladimir Ashkenazy"
ISRC GAU@79411561
INDEX 01 00:00:00
FILE "17. Septet · III. Gigue.wav" WAVE
TRACK 17 AUDIO
TITLE "III. Gigue"
PERFORMER "Vladimir Ashkenazy"
ISRC GAU@79411563
INDEX 01 00:00:00
FILE "18. Epitaphium for flute, clarinet and harp “Für das Grabmal des Prinzen Max Egon zu Fürstenberg”.wav" WAVE
TRACK 18 AUDIO
TITLE "Epitaphium for flute, clarinet and harp “Für das Grabmal des Prinzen Max Egon zu Fürstenberg”"
PERFORMER "Vladimir Ashkenazy"
ISRC GAU@79411570
INDEX 01 00:00:00
TRACK 19 AUDIO
TITLE "I. Con moto"
PERFORMER "Vladimir Ashkenazy, Andrei Gavrilov"
ISRC GAU@79010861
INDEX 00 01:29:08
FILE "19. Concerto for two pianos · I. Con moto.wav" WAVE
INDEX 01 00:00:00
FILE "20. Concerto for two pianos · II. Notturno.wav" WAVE
TRACK 20 AUDIO
TITLE "II. Notturno"
PERFORMER "Vladimir Ashkenazy, Andrei Gavrilov"
ISRC GAU@79010862
INDEX 01 00:00:00
FILE "21. Concerto for two pianos · III. Quattro variazioni.wav" WAVE
TRACK 21 AUDIO
TITLE "III. Quattro variazioni"
PERFORMER "Vladimir Ashkenazy, Andrei Gavrilov"
ISRC GAU@79010863
INDEX 01 00:00:00
FILE "22. Concerto for two pianos · IV. Preludio e fuga.wav" WAVE
TRACK 22 AUDIO
TITLE "IV. Preludio e fuga"
PERFORMER "Vladimir Ashkenazy, Andrei Gavrilov"
ISRC GAU@79010864
INDEX 01 00:00:00

CD 2

Concerto in E-flat “Dumbarton Oaks”
01. I. Tempo giusto (4:57)
02. II. Allegretto (4:31)
03. III. Con moto (5:35)
Danses concertantes
04. I. Marche: Introduction (1:51)
05. II. Pas d’action (3:30)
06. III. Thème varié (8:07)
07. IV. Pas de deux (5:23)
08. V. Marche: Conclusion (0:59)
Concerto in D for string orchestra
09. I. Vivace (5:45)
10. II. Arioso (2:55)
11. III. Rondo (3:32)
Quatre études
12. I. Danse (0:56)
13. II. Excentrique (2:14)
14. III. Cantique (4:00)
15. IV. Madrid (2:38)
Four Norwegian Moods
16. I. Intrada (2:24)
17. II. Song (2:44)
18. III. Wedding Dance (1:21)
19. IV. Cortège (2:17)
Suite No. 1
20. I. Andante (1:18)
21. II. Napolitana (1:06)
22. III. Española (0:58)
23. IV. Balalaika (1:00)
Suite No. 2
24. I. Marche (1:15)
25. II. Valse (1:59)
26. III. Polka (1:01)
27. IV. Galop (2:14)
Продолжительность: 01:16:28

Лог создания рипа

Exact Audio Copy V1.0 beta 3 from 29. August 2011
EAC extraction logfile from 16. March 2012, 20:51
- / Chamber Works and Rarities
Used drive : Optiarc DVD+-RW AD-7640A Adapter: 1 ID: 0
Read mode : Secure
Utilize accurate stream : Yes
Defeat audio cache : Yes
Make use of C2 pointers : No
Read offset correction : 6
Overread into Lead-In and Lead-Out : No
Fill up missing offset samples with silence : Yes
Delete leading and trailing silent blocks : No
Null samples used in CRC calculations : Yes
Used interface : Native Win32 interface for Win NT & 2000
Gap handling : Appended to previous track
Used output format : User Defined Encoder
Selected bitrate : 1024 kBit/s
Quality : High
Add ID3 tag : No
Command line compressor : C:\Program Files (x86)\Exact Audio Copy\Flac\flac.exe
Additional command line options : -8 -V -T "ARTIST=%artist%" -T "TITLE=%title%" -T "ALBUM=%albumtitle%" -T "DATE=%year%" -T "TRACKNUMBER=%tracknr%" -T "GENRE=%genre%" -T "PERFORMER=%albuminterpret%" -T "COMPOSER=%composer%" %haslyrics%--tag-from-file=LYRICS="%lyricsfile%"%haslyrics% -T "ALBUMARTIST=%albumartist%" -T "DISCNUMBER=%cdnumber%" -T "TOTALDISCS=%totalcds%" -T "TOTALTRACKS=%numtracks%" -T "COMMENT=%comment%" %source% -o %dest%
TOC of the extracted CD
Track | Start | Length | Start sector | End sector
---------------------------------------------------------
1 | 0:00.00 | 4:56.50 | 0 | 22249
2 | 4:56.50 | 4:30.65 | 22250 | 42564
3 | 9:27.40 | 5:35.00 | 42565 | 67689
4 | 15:02.40 | 1:50.53 | 67690 | 75992
5 | 16:53.18 | 3:29.42 | 75993 | 91709
6 | 20:22.60 | 8:06.65 | 91710 | 128224
7 | 28:29.50 | 5:22.45 | 128225 | 152419
8 | 33:52.20 | 0:59.10 | 152420 | 156854
9 | 34:51.30 | 5:45.28 | 156855 | 182757
10 | 40:36.58 | 2:55.10 | 182758 | 195892
11 | 43:31.68 | 3:32.14 | 195893 | 211806
12 | 47:04.07 | 0:56.17 | 211807 | 216023
13 | 48:00.24 | 2:13.46 | 216024 | 226044
14 | 50:13.70 | 3:59.44 | 226045 | 244013
15 | 54:13.39 | 2:37.54 | 244014 | 255842
16 | 56:51.18 | 2:24.01 | 255843 | 266643
17 | 59:15.19 | 2:43.66 | 266644 | 278934
18 | 61:59.10 | 1:20.58 | 278935 | 284992
19 | 63:19.68 | 2:16.42 | 284993 | 295234
20 | 65:36.35 | 1:18.19 | 295235 | 301103
21 | 66:54.54 | 1:05.44 | 301104 | 306022
22 | 68:00.23 | 0:58.21 | 306023 | 310393
23 | 68:58.44 | 0:59.74 | 310394 | 314892
24 | 69:58.43 | 1:15.13 | 314893 | 320530
25 | 71:13.56 | 1:58.56 | 320531 | 329436
26 | 73:12.37 | 1:00.56 | 329437 | 333992
27 | 74:13.18 | 2:14.30 | 333993 | 344072
Track 1
Filename E:\EAC Rips\Igor Stravinsky, Vladimir Ashkenazy, VO, VD - Chamber Works & Rarities (2003) [FLAC]\CD2\01 - Charles Dutoit - Concerto in E flat major Dumbarton Oaks. I. Tempo giusto.wav
Pre-gap length 0:00:02.00
Peak level 56.1 %
Extraction speed 1.2 X
Track quality 100.0 %
Test CRC 322F6A76
Copy CRC 322F6A76
Accurately ripped (confidence 4) [9D168ED4] (AR v1)
Copy OK
Track 2
Filename E:\EAC Rips\Igor Stravinsky, Vladimir Ashkenazy, VO, VD - Chamber Works & Rarities (2003) [FLAC]\CD2\02 - Charles Dutoit - Concerto in E flat major Dumbarton Oaks. II. Allegretto.wav
Peak level 49.0 %
Extraction speed 1.4 X
Track quality 100.0 %
Test CRC 67D193AF
Copy CRC 67D193AF
Accurately ripped (confidence 4) [BD908ADB] (AR v1)
Copy OK
Track 3
Filename E:\EAC Rips\Igor Stravinsky, Vladimir Ashkenazy, VO, VD - Chamber Works & Rarities (2003) [FLAC]\CD2\03 - Charles Dutoit - Concerto in E flat major Dumbarton Oaks. III. Con moto.wav
Peak level 80.5 %
Extraction speed 1.4 X
Track quality 99.9 %
Test CRC AD9A119C
Copy CRC AD9A119C
Accurately ripped (confidence 4) [D1ADC398] (AR v1)
Copy OK
Track 4
Filename E:\EAC Rips\Igor Stravinsky, Vladimir Ashkenazy, VO, VD - Chamber Works & Rarities (2003) [FLAC]\CD2\04 - Charles Dutoit - Danses concertantes. I. Marche- Introduction.wav
Peak level 70.8 %
Extraction speed 1.3 X
Track quality 100.0 %
Test CRC 5D956235
Copy CRC 5D956235
Accurately ripped (confidence 4) [E3ED126E] (AR v1)
Copy OK
Track 5
Filename E:\EAC Rips\Igor Stravinsky, Vladimir Ashkenazy, VO, VD - Chamber Works & Rarities (2003) [FLAC]\CD2\05 - Charles Dutoit - Danses concertantes. II. Pas daction.wav
Peak level 89.1 %
Extraction speed 1.6 X
Track quality 100.0 %
Test CRC 9C8AEC85
Copy CRC 9C8AEC85
Accurately ripped (confidence 4) [7EF85129] (AR v1)
Copy OK
Track 6
Filename E:\EAC Rips\Igor Stravinsky, Vladimir Ashkenazy, VO, VD - Chamber Works & Rarities (2003) [FLAC]\CD2\06 - Charles Dutoit - Danses concertantes. III. Thème varié.wav
Peak level 89.5 %
Extraction speed 1.9 X
Track quality 100.0 %
Test CRC D5A12930
Copy CRC D5A12930
Accurately ripped (confidence 4) [B5B7B27B] (AR v1)
Copy OK
Track 7
Filename E:\EAC Rips\Igor Stravinsky, Vladimir Ashkenazy, VO, VD - Chamber Works & Rarities (2003) [FLAC]\CD2\07 - Charles Dutoit - Danses concertantes. IV. Pas de deux.wav
Peak level 46.2 %
Extraction speed 2.0 X
Track quality 100.0 %
Test CRC 657E1C69
Copy CRC 657E1C69
Accurately ripped (confidence 4) [F7328EDF] (AR v1)
Copy OK
Track 8
Filename E:\EAC Rips\Igor Stravinsky, Vladimir Ashkenazy, VO, VD - Chamber Works & Rarities (2003) [FLAC]\CD2\08 - Charles Dutoit - Danses concertantes. V. Marche- Conclusion.wav
Peak level 85.5 %
Extraction speed 1.3 X
Track quality 100.0 %
Test CRC 984573AC
Copy CRC 984573AC
Accurately ripped (confidence 4) [9ABA4F59] (AR v1)
Copy OK
Track 9
Filename E:\EAC Rips\Igor Stravinsky, Vladimir Ashkenazy, VO, VD - Chamber Works & Rarities (2003) [FLAC]\CD2\09 - Charles Dutoit - Concerto in D for strings. I. Vivace.wav
Peak level 53.1 %
Extraction speed 2.1 X
Track quality 100.0 %
Test CRC 69780BF6
Copy CRC 69780BF6
Accurately ripped (confidence 4) [05C7A526] (AR v1)
Copy OK
Track 10
Filename E:\EAC Rips\Igor Stravinsky, Vladimir Ashkenazy, VO, VD - Chamber Works & Rarities (2003) [FLAC]\CD2\10 - Charles Dutoit - Concerto in D for strings. II. Arioso.wav
Peak level 30.7 %
Extraction speed 1.9 X
Track quality 100.0 %
Test CRC E47AD13F
Copy CRC E47AD13F
Accurately ripped (confidence 4) [76757C30] (AR v1)
Copy OK
Track 11
Filename E:\EAC Rips\Igor Stravinsky, Vladimir Ashkenazy, VO, VD - Chamber Works & Rarities (2003) [FLAC]\CD2\11 - Charles Dutoit - Concerto in D for strings. III. Rondo.wav
Peak level 81.3 %
Extraction speed 2.1 X
Track quality 100.0 %
Test CRC 1F57DD3D
Copy CRC 1F57DD3D
Accurately ripped (confidence 4) [365FF144] (AR v1)
Copy OK
Track 12
Filename E:\EAC Rips\Igor Stravinsky, Vladimir Ashkenazy, VO, VD - Chamber Works & Rarities (2003) [FLAC]\CD2\12 - Charles Dutoit - Quatre Études. I. Danse.wav
Pre-gap length 0:00:01.97
Peak level 28.8 %
Extraction speed 1.5 X
Track quality 100.0 %
Test CRC E16BDF2A
Copy CRC E16BDF2A
Accurately ripped (confidence 4) [9EDC9A2C] (AR v1)
Copy OK
Track 13
Filename E:\EAC Rips\Igor Stravinsky, Vladimir Ashkenazy, VO, VD - Chamber Works & Rarities (2003) [FLAC]\CD2\13 - Charles Dutoit - Quatre Études. II. Excentrique.wav
Peak level 35.6 %
Extraction speed 2.0 X
Track quality 100.0 %
Test CRC AD975BDE
Copy CRC AD975BDE
Accurately ripped (confidence 4) [67D7C6B7] (AR v1)
Copy OK
Track 14
Filename E:\EAC Rips\Igor Stravinsky, Vladimir Ashkenazy, VO, VD - Chamber Works & Rarities (2003) [FLAC]\CD2\14 - Charles Dutoit - Quatre Études. III. Cantique.wav
Peak level 15.8 %
Extraction speed 2.2 X
Track quality 100.0 %
Test CRC 739C2E76
Copy CRC 739C2E76
Accurately ripped (confidence 4) [3CE2F4BA] (AR v1)
Copy OK
Track 15
Filename E:\EAC Rips\Igor Stravinsky, Vladimir Ashkenazy, VO, VD - Chamber Works & Rarities (2003) [FLAC]\CD2\15 - Charles Dutoit - Quatre Études. IV. Madrid.wav
Peak level 62.0 %
Extraction speed 1.8 X
Track quality 99.9 %
Test CRC 6949F9EA
Copy CRC 6949F9EA
Accurately ripped (confidence 4) [FF4780F0] (AR v1)
Copy OK
Track 16
Filename E:\EAC Rips\Igor Stravinsky, Vladimir Ashkenazy, VO, VD - Chamber Works & Rarities (2003) [FLAC]\CD2\16 - Riccardo Chailly - Four Norwegian Moods. I. Intrada.wav
Pre-gap length 0:00:03.70
Peak level 25.9 %
Extraction speed 2.1 X
Track quality 100.0 %
Test CRC E82C4CCE
Copy CRC E82C4CCE
Accurately ripped (confidence 4) [57619EFF] (AR v1)
Copy OK
Track 17
Filename E:\EAC Rips\Igor Stravinsky, Vladimir Ashkenazy, VO, VD - Chamber Works & Rarities (2003) [FLAC]\CD2\17 - Riccardo Chailly - Four Norwegian Moods. II. Song.wav
Peak level 10.2 %
Extraction speed 2.2 X
Track quality 100.0 %
Test CRC A8F9D9ED
Copy CRC A8F9D9ED
Accurately ripped (confidence 4) [33E73A1E] (AR v1)
Copy OK
Track 18
Filename E:\EAC Rips\Igor Stravinsky, Vladimir Ashkenazy, VO, VD - Chamber Works & Rarities (2003) [FLAC]\CD2\18 - Riccardo Chailly - Four Norwegian Moods. III. Wedding Dance.wav
Peak level 76.8 %
Extraction speed 1.8 X
Track quality 100.0 %
Test CRC AB555F40
Copy CRC AB555F40
Accurately ripped (confidence 4) [D6D38854] (AR v1)
Copy OK
Track 19
Filename E:\EAC Rips\Igor Stravinsky, Vladimir Ashkenazy, VO, VD - Chamber Works & Rarities (2003) [FLAC]\CD2\19 - Riccardo Chailly - Four Norwegian Moods. IV. Cortège.wav
Peak level 19.5 %
Extraction speed 2.2 X
Track quality 100.0 %
Test CRC D7854C92
Copy CRC D7854C92
Accurately ripped (confidence 4) [56D0430B] (AR v1)
Copy OK
Track 20
Filename E:\EAC Rips\Igor Stravinsky, Vladimir Ashkenazy, VO, VD - Chamber Works & Rarities (2003) [FLAC]\CD2\20 - Ernest Ansermet - Suite No. 1. I. Andante.wav
Pre-gap length 0:00:02.68
Peak level 15.8 %
Extraction speed 1.9 X
Track quality 100.0 %
Test CRC A5801108
Copy CRC A5801108
Accurately ripped (confidence 4) [52F12BDC] (AR v1)
Copy OK
Track 21
Filename E:\EAC Rips\Igor Stravinsky, Vladimir Ashkenazy, VO, VD - Chamber Works & Rarities (2003) [FLAC]\CD2\21 - Ernest Ansermet - Suite No. 1. II. Napolitana.wav
Peak level 66.1 %
Extraction speed 1.8 X
Track quality 100.0 %
Test CRC D8CED4EC
Copy CRC D8CED4EC
Accurately ripped (confidence 4) [BA415D64] (AR v1)
Copy OK
Track 22
Filename E:\EAC Rips\Igor Stravinsky, Vladimir Ashkenazy, VO, VD - Chamber Works & Rarities (2003) [FLAC]\CD2\22 - Ernest Ansermet - Suite No. 1. III. Española.wav
Peak level 33.7 %
Extraction speed 1.7 X
Track quality 100.0 %
Test CRC B18508F4
Copy CRC B18508F4
Accurately ripped (confidence 4) [1CEE7A6B] (AR v1)
Copy OK
Track 23
Filename E:\EAC Rips\Igor Stravinsky, Vladimir Ashkenazy, VO, VD - Chamber Works & Rarities (2003) [FLAC]\CD2\23 - Ernest Ansermet - Suite No. 1. IV. Balalaika.wav
Peak level 82.6 %
Extraction speed 1.8 X
Track quality 100.0 %
Test CRC 82FB8D74
Copy CRC 82FB8D74
Accurately ripped (confidence 4) [EC4BD00F] (AR v1)
Copy OK
Track 24
Filename E:\EAC Rips\Igor Stravinsky, Vladimir Ashkenazy, VO, VD - Chamber Works & Rarities (2003) [FLAC]\CD2\24 - Ernest Ansermet - Suite No. 2. I. Marche.wav
Peak level 75.0 %
Extraction speed 1.9 X
Track quality 100.0 %
Test CRC CD8052B9
Copy CRC CD8052B9
Accurately ripped (confidence 4) [226BE1E7] (AR v1)
Copy OK
Track 25
Filename E:\EAC Rips\Igor Stravinsky, Vladimir Ashkenazy, VO, VD - Chamber Works & Rarities (2003) [FLAC]\CD2\25 - Ernest Ansermet - Suite No. 2. II. Valse.wav
Peak level 13.3 %
Extraction speed 2.2 X
Track quality 100.0 %
Test CRC 41509893
Copy CRC 41509893
Accurately ripped (confidence 4) [E96418C3] (AR v1)
Copy OK
Track 26
Filename E:\EAC Rips\Igor Stravinsky, Vladimir Ashkenazy, VO, VD - Chamber Works & Rarities (2003) [FLAC]\CD2\26 - Ernest Ansermet - Suite No. 2. III. Polka.wav
Peak level 92.5 %
Extraction speed 1.3 X
Track quality 99.8 %
Test CRC 8EC64241
Copy CRC 8EC64241
Accurately ripped (confidence 4) [9643D239] (AR v1)
Copy OK
Track 27
Filename E:\EAC Rips\Igor Stravinsky, Vladimir Ashkenazy, VO, VD - Chamber Works & Rarities (2003) [FLAC]\CD2\27 - Ernest Ansermet - Suite No. 2. IV. Galop.wav
Peak level 99.9 %
Extraction speed 2.3 X
Track quality 100.0 %
Test CRC 8CE445AD
Copy CRC 8CE445AD
Accurately ripped (confidence 4) [243B2410] (AR v1)
Copy OK
All tracks accurately ripped
No errors occurred
End of status report
---- CUETools DB Plugin V2.1.3
[CTDB TOCID: jCSiIK5.cwGK9XvFEL6OZK81YYc-] found, Submit result: jCSiIK5.cwGK9XvFEL6OZK81YYc- has been confirmed
[d800f01a] (2/2) Accurately ripped
==== Log checksum D073632DF237550C7A0C4181802617F92AB766277EA33F442CD0652FE613E045 ====

Содержание индексной карты (.CUE)

REM DATE 2003
REM DISCID 7211EB1B
REM COMMENT "ExactAudioCopy v1.0b3"
CATALOG 0028947381228
PERFORMER "VA"
TITLE "Chamber Works & Rarities"
FILE "01. Concerto in E-flat “Dumbarton Oaks” · I. Tempo giusto.wav" WAVE
TRACK 01 AUDIO
TITLE "I. Tempo giusto"
PERFORMER "Charles Dutoit"
ISRC GAU@79111941
INDEX 01 00:00:00
FILE "02. Concerto in E-flat “Dumbarton Oaks” · II. Allegretto.wav" WAVE
TRACK 02 AUDIO
TITLE "II. Allegretto"
PERFORMER "Charles Dutoit"
ISRC GAU@79111942
INDEX 01 00:00:00
FILE "03. Concerto in E-flat “Dumbarton Oaks” · III. Con moto.wav" WAVE
TRACK 03 AUDIO
TITLE "III. Con moto"
PERFORMER "Charles Dutoit"
ISRC GAU@79111942
INDEX 01 00:00:00
FILE "04. Danses concertantes · I. Marche. Introduction.wav" WAVE
TRACK 04 AUDIO
TITLE "I. Marche: Introduction"
PERFORMER "Charles Dutoit"
ISRC GAU@79211501
INDEX 01 00:00:00
FILE "05. Danses concertantes · II. Pas d’action.wav" WAVE
TRACK 05 AUDIO
TITLE "II. Pas d’action"
PERFORMER "Charles Dutoit"
ISRC GAU@79211502
INDEX 01 00:00:00
FILE "06. Danses concertantes · III. Thème varié.wav" WAVE
TRACK 06 AUDIO
TITLE "III. Thème varié"
PERFORMER "Charles Dutoit"
ISRC GAU@79211503
INDEX 01 00:00:00
FILE "07. Danses concertantes · IV. Pas de deux.wav" WAVE
TRACK 07 AUDIO
TITLE "IV. Pas de deux"
PERFORMER "Charles Dutoit"
ISRC GAU@79211504
INDEX 01 00:00:00
FILE "08. Danses concertantes · V. Marche. Conclusion.wav" WAVE
TRACK 08 AUDIO
TITLE "V. Marche: Conclusion"
PERFORMER "Charles Dutoit"
ISRC GAU@79211505
INDEX 01 00:00:00
FILE "09. Concerto in D for string orchestra · I. Vivace.wav" WAVE
TRACK 09 AUDIO
TITLE "I. Vivace"
PERFORMER "Charles Dutoit"
ISRC GAU@79211511
INDEX 01 00:00:00
FILE "10. Concerto in D for string orchestra · II. Arioso.wav" WAVE
TRACK 10 AUDIO
TITLE "II. Arioso"
PERFORMER "Charles Dutoit"
ISRC GAU@79211512
INDEX 01 00:00:00
FILE "11. Concerto in D for string orchestra · III. Rondo.wav" WAVE
TRACK 11 AUDIO
TITLE "III. Rondo"
PERFORMER "Charles Dutoit"
ISRC GAU@79211513
INDEX 01 00:00:00
TRACK 12 AUDIO
TITLE "I. Danse"
PERFORMER "Charles Dutoit"
ISRC GAU@78611071
INDEX 00 03:30:16
FILE "12. Quatre études · I. Danse.wav" WAVE
INDEX 01 00:00:00
FILE "13. Quatre études · II. Excentrique.wav" WAVE
TRACK 13 AUDIO
TITLE "II. Excentrique"
PERFORMER "Charles Dutoit"
ISRC GAU@78611072
INDEX 01 00:00:00
FILE "14. Quatre études · III. Cantique.wav" WAVE
TRACK 14 AUDIO
TITLE "III. Cantique"
PERFORMER "Charles Dutoit"
ISRC GAU@78611073
INDEX 01 00:00:00
FILE "15. Quatre études · IV. Madrid.wav" WAVE
TRACK 15 AUDIO
TITLE "IV. Madrid"
PERFORMER "Charles Dutoit"
ISRC GAU@78611074
INDEX 01 00:00:00
TRACK 16 AUDIO
TITLE "I. Intrada"
PERFORMER "Riccardo Chailly"
ISRC GAU@78510401
INDEX 00 02:34:01
FILE "16. Four Norwegian Moods · I. Intrada.wav" WAVE
INDEX 01 00:00:00
FILE "17. Four Norwegian Moods · II. Song.wav" WAVE
TRACK 17 AUDIO
TITLE "II. Song"
PERFORMER "Riccardo Chailly"
ISRC GAU@78510402
INDEX 01 00:00:00
FILE "18. Four Norwegian Moods · III. Wedding Dance.wav" WAVE
TRACK 18 AUDIO
TITLE "III. Wedding Dance"
PERFORMER "Riccardo Chailly"
ISRC GAU@78510403
INDEX 01 00:00:00
FILE "19. Four Norwegian Moods · IV. Cortège.wav" WAVE
TRACK 19 AUDIO
TITLE "IV. Cortège"
PERFORMER "Riccardo Chailly"
ISRC GAU@78510404
INDEX 01 00:00:00
TRACK 20 AUDIO
TITLE "I. Andante"
PERFORMER "Ernest Ansermet"
ISRC GAU@76212031
INDEX 00 02:13:66
FILE "20. Suite No. 1 · I. Andante.wav" WAVE
INDEX 01 00:00:00
FILE "21. Suite No. 1 · II. Napolitana.wav" WAVE
TRACK 21 AUDIO
TITLE "II. Napolitana"
PERFORMER "Ernest Ansermet"
ISRC GAU@76212032
INDEX 01 00:00:00
FILE "22. Suite No. 1 · III. Española.wav" WAVE
TRACK 22 AUDIO
TITLE "III. Española"
PERFORMER "Ernest Ansermet"
ISRC GAU@76212033
INDEX 01 00:00:00
FILE "23. Suite No. 1 · IV. Balalaika.wav" WAVE
TRACK 23 AUDIO
TITLE "IV. Balalaika"
PERFORMER "Ernest Ansermet"
ISRC GAU@76212034
INDEX 01 00:00:00
FILE "24. Suite No. 2 · I. Marche.wav" WAVE
TRACK 24 AUDIO
TITLE "I. Marche"
PERFORMER "Ernest Ansermet"
ISRC GAU@76212041
INDEX 01 00:00:00
FILE "25. Suite No. 2 · II. Valse.wav" WAVE
TRACK 25 AUDIO
TITLE "II. Valse"
PERFORMER "Ernest Ansermet"
ISRC GAU@76212042
INDEX 01 00:00:00
FILE "26. Suite No. 2 · III. Polka.wav" WAVE
TRACK 26 AUDIO
TITLE "III. Polka"
PERFORMER "Ernest Ansermet"
ISRC GAU@76212043
INDEX 01 00:00:00
FILE "27. Suite No. 2 · IV. Galop.wav" WAVE
TRACK 27 AUDIO
TITLE "IV. Galop"
PERFORMER "Ernest Ansermet"
ISRC GAU@76212044
INDEX 01 00:00:00



Показать сообщения:    

Текущее время: 10-Дек 21:34

Часовой пояс: UTC + 3


Вы не можете начинать темы
Вы не можете отвечать на сообщения
Вы не можете редактировать свои сообщения
Вы не можете удалять свои сообщения
Вы не можете голосовать в опросах
Вы не можете прикреплять файлы к сообщениям
Вы не можете скачивать файлы