Доминик Беснеар: Жизнь крупным планом / Dominique Besnehard: une vie en Cinemascope (Светлана Клинышкова / Svetlana Klinyshkova) [2014, документальный, биографический, кинематограф, DVB] Original (Fre) + Sub (Rus, Eng, Fre, Deu)


Статистика раздачи [Обновить пиров]
Размер:  1.11 GB   |    Зарегистрирован:  8 месяцев 15 дней   |    Скачан:  0 раз

Полного источника не было: Никогда

 
   
 
 
 

[Цитировать]

Доминик Беснеар: Жизнь крупным планом
Dominique Besnehard: une vie en Cinémascope- Дата/Год выпуска: 2014
Страна: Франция
Жанр: документальный, биографический, кинематограф
Продолжительность: 00:50:01
Перевод: Субтитры
Доп. инфо о переводе: русский перевод Е.Маньен, Éclair Media
Русские субтитры: естьФормат субтитров: prerendered (IDX+SUB)
Доп. информация о субтитрах: русские, английские, французские, немецкие, нидерландские, румынские
Оригинальная аудиодорожка: французский
Режиссер: Светлана Клинышкова / Svetlana Klinyshkova
Телеканал: TV5MONDE Europe
В ролях: Доминик Санда, Беатрис Даль, Софи Марсо, Сесиль де Франс, Седрик Клапиш, Катрин Фро
Описание: Фильм снят к 60-летию выдающегося артистического агента Доминика Беснеара. Работая в крупнейшем французском артистическом агентстве "Artmedia", он представляет более пятидесяти актеров и режиссеров, среди которых Жанна Моро, Анук Эме, Лин Рено, Милен Демонжо, Жаклин Биссе, Шарль Азнавур, Мишель Блан, Пьер Ришар, Жан-Луи Трентиньян, Софи Марсо, Изабель Аджани, Кристофер Ламберт, Жюли Депардье, Натали Бэй, Эммануэль Беар, Шарлотта Генсбур, Руперт Эверетт, Анджей Жулавский, Франсуа Озон, Жози Дайан, Клер Дени, Клер Девер, Пьер Сальвадори. А прежде чем стать артистическим агентом, в 1975-1986 гг. Доминик Бенеар был режиссером по кастингу. Он подбирал актеров для таких известных фильмов, как "Дива", "Прохожая из "Сан-Суси", "Стукач", "Официант!", "Дерзкая", "Пираты", "Имя розы".
Доп. информация: Hot Bird (13.0°E) DVB-S

качество: DVB
формат: MKV
Видео: MPEG Video 2, 720x576@1024x576 (16:9), 25 fps, ~2931 kbps avg, 0.283 bit/pixel
Аудио: MPEG Audio 2, 2 ch, 48 kHz, ~192.00 kbps avg - французский

MediaInfo

Общее
Уникальный идентификатор : 234970545821702702911007700292427573481 (0xB0C5AE57A28B4C9E99421872F86BE8E9)
Полное имя : F:\My Torrents 3\[apreder]Dominique_Besnehard_une_vie_en_Cinemascope(2014)DVB.mkv
Формат : Matroska
Версия формата : Version 2
Размер файла : 1,11 Гбайт
Продолжительность : 50 м.
Режим общего битрейта : Переменный
Общий поток : 3186 Кбит/сек
Дата кодирования : UTC 2015-09-02 16:59:49
Программа кодирования : mkvmerge v8.3.0 ('Over the Horizon') 64bit
Библиотека кодирования : libebml v1.3.1 + libmatroska v1.4.2
Attachements : cover.jpg / cover_small.jpg
TITLE : Dominique Besnehard: une vie en Cinémascope
DATE_RELEASED : 2014-00-00
LAW_RATING : 16+
GENRE : Documentary
DIRECTOR : Svetlana Klinyshkova
KEYWORDS : rutracker.org
Видео
Идентификатор : 1
Формат : MPEG Video
Версия формата : Version 2
Профиль формата : Main@Main
Параметр BVOP формата : Да
Параметр матрицы формата : Выборочная
Параметр GOP формата : M=4, N=12
Format_Settings_PictureStructure : Frame
Идентификатор кодека : V_MPEG2
Идентификатор кодека/Информация : MPEG 1 or 2 Video
Продолжительность : 50 м.
Вид битрейта : Переменный
Битрейт : 2931 Кбит/сек
Ширина : 720 пикселей
Высота : 576 пикселей
Соотношение сторон : 16:9
Режим частоты кадров : Постоянный
Частота кадров : 25,000 кадров/сек
Стандарт вещания : PAL
Цветовое пространство : YUV
Субдискретизация насыщенности : 4:2:0
Битовая глубина : 8 бит
Тип развёртки : Чересстрочная
Порядок развёртки : Верхнее поле первое
Метод сжатия : С потерями
Бит/(Пиксели*Кадры) : 0.283
Временной код первого кадра : 00:00:00:00
Оригинал временного кода : Group of pictures header
Размер потока : 1,02 Гбайт (92%)
Default : Да
Forced : Нет
Аудио
Идентификатор : 2
Формат : MPEG Audio
Версия формата : Version 1
Профиль формата : Layer 2
Режим : Joint stereo
Расширение режима : Intensity Stereo + MS Stereo
Идентификатор кодека : A_MPEG/L2
Идентификатор кодека/Подсказка : MP2
Продолжительность : 50 м.
Вид битрейта : Постоянный
Битрейт : 192 Кбит/сек
Каналы : 2 канала
Частота : 48,0 КГц
Метод сжатия : С потерями
Размер потока : 68,7 Мбайт (6%)
Язык : French
Default : Да
Forced : Нет
Текст #1
Идентификатор : 3
Формат : VobSub
Идентификатор кодека : S_VOBSUB
Идентификатор кодека/Информация : Picture based subtitle format used on DVDs
Язык : Russian
Default : Да
Forced : Нет
Текст #2
Идентификатор : 4
Формат : VobSub
Идентификатор кодека : S_VOBSUB
Идентификатор кодека/Информация : Picture based subtitle format used on DVDs
Язык : English
Default : Нет
Forced : Нет
Текст #3
Идентификатор : 5
Формат : VobSub
Идентификатор кодека : S_VOBSUB
Идентификатор кодека/Информация : Picture based subtitle format used on DVDs
Язык : French
Default : Нет
Forced : Нет
Текст #4
Идентификатор : 6
Формат : VobSub
Идентификатор кодека : S_VOBSUB
Идентификатор кодека/Информация : Picture based subtitle format used on DVDs
Язык : German
Default : Нет
Forced : Нет
Текст #5
Идентификатор : 7
Формат : VobSub
Идентификатор кодека : S_VOBSUB
Идентификатор кодека/Информация : Picture based subtitle format used on DVDs
Язык : Dutch
Default : Нет
Forced : Нет
Текст #6
Идентификатор : 8
Формат : VobSub
Идентификатор кодека : S_VOBSUB
Идентификатор кодека/Информация : Picture based subtitle format used on DVDs
Язык : Romanian
Default : Нет
Forced : Нет

Скриншоты


Резервные скриншоты


-
[teatrix.ru].t22175.torrent 
Торрент: Зарегистрирован [ 2016-03-20 12:42 ] · BA9886BF1D9CA73E338764B6E906A94C38154A74

Скачать .torrent

Скачать

12 KB

Статус: проверено
Скачан: 0 раз
Размер: 1.11 GB
terms.php



Быстрый ответ

Имя:

      
Для отправки сообщений необходимо включить JavaScript
Показать сообщения:    

Текущее время: 04-Дек 23:20

Часовой пояс: UTC + 3


Вы можете начинать темы
Вы можете отвечать на сообщения
Вы не можете редактировать свои сообщения
Вы не можете удалять свои сообщения
Вы не можете голосовать в опросах
Вы не можете прикреплять файлы к сообщениям
Вы можете скачивать файлы