(Classical) Franz Danzi - Wind Quintets, Vol.1 (Opp.67, 53) - Berlin Philharmonic Wind Quintet, Love Derwinger - 1991, FLAC (image+.cue) lossless


 

[Цитировать]

Franz Danzi - Wind Quintets, Vol.1 (Opp.67, 53) - Berlin Philharmonic Wind Quintet, Love Derwinger
Жанр: Classical
Страна-производитель диска: Sweden
Год издания диска: 1991
Издатель (лейбл): BIS
Номер по каталогу: IS-CD-532
Дата записи: 1991
Аудиокодек: FLAC
Тип рипа: image+.cue
Битрейт аудио: lossless
Продолжительность: 77:33
Источник: собственный рип
Наличие сканов в содержимом раздачи: да
Треклист:
Franz Danzi (1763-1826)
[1]-[4] Wind Quintet in G major, Op.67 No.1
[5]-[8] Wind Quintet in E minor, Op.67 No.2
[9]-[12] Wind Quintet in E flat major, Op.67 No.3
[13]-[15] Quintet in F major, Op.53
for Piano, Flute, Oboe, Clarinet and Bassoon
Исполнители:
Berlin Philharmonic Wind Quintet
Michael Hasel flute
Andreas Wittmann oboe
Walter Seyfarth clarinet
Fergus McWilliam horn
Henning Trog bassoon
Love Derwinger piano

Лог создания рипа

Exact Audio Copy V1.0 beta 3 from 29. August 2011
EAC extraction logfile from 7. February 2015, 16:28
Berin Philharmonic Wind Quintet / Danzi - Wind Quintets, Vol.1
Used drive : HL-DT-STDVDRAM GU70N Adapter: 0 ID: 0
Read mode : Secure
Utilize accurate stream : Yes
Defeat audio cache : Yes
Make use of C2 pointers : No
Read offset correction : 48
Overread into Lead-In and Lead-Out : No
Fill up missing offset samples with silence : Yes
Delete leading and trailing silent blocks : No
Null samples used in CRC calculations : Yes
Used interface : Native Win32 interface for Win NT & 2000
Used output format : User Defined Encoder
Selected bitrate : 128 kBit/s
Quality : High
Add ID3 tag : No
Command line compressor : C:\Program Files (x86)\Exact Audio Copy\Flac\flac.exe
Additional command line options : -V -8 -T "Date=%year%" -T "Genre=%genre%" %source%
TOC of the extracted CD
Track | Start | Length | Start sector | End sector
---------------------------------------------------------
1 | 0:00.00 | 6:50.22 | 0 | 30771
2 | 6:50.22 | 3:11.00 | 30772 | 45096
3 | 10:01.22 | 3:08.00 | 45097 | 59196
4 | 13:09.22 | 4:22.00 | 59197 | 78846
5 | 17:31.22 | 7:19.00 | 78847 | 111771
6 | 24:50.22 | 3:35.00 | 111772 | 127896
7 | 28:25.22 | 3:30.00 | 127897 | 143646
8 | 31:55.22 | 4:04.00 | 143647 | 161946
9 | 35:59.22 | 8:07.00 | 161947 | 198471
10 | 44:06.22 | 3:39.00 | 198472 | 214896
11 | 47:45.22 | 2:04.00 | 214897 | 224196
12 | 49:49.22 | 3:32.00 | 224197 | 240096
13 | 53:21.22 | 10:18.00 | 240097 | 286446
14 | 63:39.22 | 5:36.00 | 286447 | 311646
15 | 69:15.22 | 8:15.53 | 311647 | 348824
Range status and errors
Selected range
Filename C:\temp\BIS-CD-0532 - Danzi - Wind Quintets, Vol.1\Danzi - Wind Quintets, Vol.1.wav
Peak level 96.3 %
Extraction speed 2.3 X
Range quality 99.9 %
Test CRC F715ED9C
Copy CRC F715ED9C
Copy OK
No errors occurred
AccurateRip summary
Track 1 accurately ripped (confidence 2) [BA81D9AE] (AR v1)
Track 2 accurately ripped (confidence 2) [EF30EAD7] (AR v1)
Track 3 accurately ripped (confidence 1) [38896B25] (AR v2)
Track 4 accurately ripped (confidence 2) [FDE1534E] (AR v1)
Track 5 accurately ripped (confidence 1) [A55281A5] (AR v2)
Track 6 accurately ripped (confidence 1) [7CD7E210] (AR v2)
Track 7 accurately ripped (confidence 2) [837193CB] (AR v1)
Track 8 accurately ripped (confidence 2) [09175751] (AR v1)
Track 9 accurately ripped (confidence 1) [06F02570] (AR v2)
Track 10 accurately ripped (confidence 1) [6DADB9F3] (AR v2)
Track 11 accurately ripped (confidence 1) [2509502A] (AR v2)
Track 12 accurately ripped (confidence 1) [9B991888] (AR v2)
Track 13 accurately ripped (confidence 1) [40975D5D] (AR v2)
Track 14 accurately ripped (confidence 2) [0DB5CCDC] (AR v1)
Track 15 accurately ripped (confidence 2) [1EBC87B7] (AR v1)
All tracks accurately ripped
End of status report
==== Log checksum CD7425D623938834BB84E467A7CBD1DC2CA31FE79BEDAE326D9C705ED062F546 ====



Показать сообщения:    

Текущее время: 05-Дек 19:36

Часовой пояс: UTC + 3


Вы не можете начинать темы
Вы не можете отвечать на сообщения
Вы не можете редактировать свои сообщения
Вы не можете удалять свои сообщения
Вы не можете голосовать в опросах
Вы не можете прикреплять файлы к сообщениям
Вы не можете скачивать файлы