Лев Дуров. Последнее интервью (эфир от 29.08.2015) (Илья Ульянов) [29.08.2015, Документальный, биография, SATRip]


Статистика раздачи [Обновить пиров]
Размер:  718 MB   |    Зарегистрирован:  8 месяцев 18 дней   |    Скачан:  0 раз

Полного источника не было: Никогда

 
   
 
 
 

[Цитировать]

Лев Дуров. Последнее интервью (эфир от 29.08.2015)
Дата/Год выпуска: 29.08.2015
Страна: Россия
Жанр: Документальный, биография
Продолжительность: 00:50:08
Перевод: Профессиональный (дублированный)
Режиссер: Илья Ульянов
Телеканал: Первый канал
Описание: Некоторое время назад Лев Дуров дал большое интервью Первому каналу. Так получилось, что тот разговор телезрители так и не увидели. Отдавая дань памяти замечательному актеру, мы покажем его последнее интервью.
качество: SATRip
формат: AVI
Видео: XviD, 1800 Кбит/с, 704x456
Аудио: AC3, 2 ch, 192 Кбит/с
Аудио 2: AC3, 2 ch, 192 Кбит/с

MediaInfo

General
Complete name : L:\2015\Лев Дуров. Последнее интервью (эфир от 29.08.2015).avi
Format : AVI
Format/Info : Audio Video Interleave
File size : 718 MiB
Duration : 50mn 8s
Overall bit rate : 2 002 Kbps
Writing application : VirtualDubMod 1.5.10.3 | www.virtualdub-fr.org || (build 2550/release)
Writing library : VirtualDubMod build 2550/release
Video
ID : 0
Format : MPEG-4 Visual
Format profile : Advanced Simple@L5
Format settings, BVOP : 2
Format settings, QPel : No
Format settings, GMC : No warppoints
Format settings, Matrix : Default (H.263)
Codec ID : XVID
Codec ID/Hint : XviD
Duration : 50mn 8s
Bit rate : 1 800 Kbps
Width : 704 pixels
Height : 456 pixels
Display aspect ratio : 3:2
Frame rate : 25.000 fps
Color space : YUV
Chroma subsampling : 4:2:0
Bit depth : 8 bits
Scan type : Progressive
Compression mode : Lossy
Bits/(Pixel*Frame) : 0.224
Stream size : 646 MiB (90%)
Writing library : XviD 1.2.1 (UTC 2008-12-04)
Audio
ID : 1
Format : AC-3
Format/Info : Audio Coding 3
Mode extension : CM (complete main)
Format settings, Endianness : Big
Codec ID : 2000
Duration : 50mn 8s
Bit rate mode : Constant
Bit rate : 192 Kbps
Channel(s) : 2 channels
Channel positions : Front: L R
Sampling rate : 48.0 KHz
Bit depth : 16 bits
Compression mode : Lossy
Stream size : 68.9 MiB (10%)
Alignment : Split accross interleaves
Interleave, duration : 40 ms (1.00 video frame)
Interleave, preload duration : 500 ms

Скриншоты




[teatrix.ru].t22177.torrent 
Торрент: Зарегистрирован [ 2016-03-20 12:42 ] · 8D60DC1E3C18926420AD54D1FE5968935BC5147F

Скачать .torrent

Скачать

15 KB

Статус: проверено
Скачан: 0 раз
Размер: 718 MB
terms.php



Быстрый ответ

Имя:

      
Для отправки сообщений необходимо включить JavaScript
Показать сообщения:    

Текущее время: 08-Дек 10:58

Часовой пояс: UTC + 3


Вы можете начинать темы
Вы можете отвечать на сообщения
Вы не можете редактировать свои сообщения
Вы не можете удалять свои сообщения
Вы не можете голосовать в опросах
Вы не можете прикреплять файлы к сообщениям
Вы можете скачивать файлы