(Classical) Johann Sebastian Bach · Sonatas for violin and harpsichord, BWV 1014–1019 / Trio Sonata No. 5 in C, BWV 529 / Sonata in G, BWV 1021 (Виктория Муллова, Ottavio Dantone, Vittorio Ghielmi, Luca Pianca) · 2007, FLAC (tracks+.cue) lossless


 

[Цитировать]

Johann Sebastian Bach
Sonatas for violin and harpsichord, BWV 1014–1019
Trio Sonata No. 5 in C, BWV 529*
Sonata in G, BWV 1021*

Жанр: classical
Страна-производитель диска: EU
Год издания диска: 2007
Издатель: Onyx
Номер по каталогу: 4020
Дата записи: 2007
Аудиокодек: FLAC
Тип рипа: tracks+.cue
Битрейт аудио: lossless
Продолжительность: 01:53:30
Источник: what.cd
Буклет в содержимом раздачи отсутствует
Исполнители:
Виктория Муллова (violin)
Ottavio Dantone (harpsichord, organ*)
Vittorio Ghielmi (viola da gamba)*
Luca Pianca (lute)*

CD 1

Sonata in B minor, BWV 1014 for violin and harpsichord
01. I. Adagio (3:11)
02. II. Allegro (3:01)
03. III. Andante (2:56)
04. IV. Allegro (3:29)
Sonata in A, BWV 1015 for violin and harpsichord
05. I. Dolce (2:47)
06. II. Allegro (3:04)
07. III. Andante un poco (3:06)
08. IV. Presto (4:45)
Sonata in E, BWV 1016 for violin and harpsichord
09. I. Adagio (3:50)
10. II. Allegro (2:58)
11. III. Adagio ma non tanto (4:22)
12. IV. Allegro (3:52)
Trio Sonata No. 5 in C, BWV 529 for violin, organ and continuo
13. I. Allegro (4:25)
14. II. Largo (5:05)
15. III. Allegro (3:18)
Продолжительность: 00:54:07

Лог создания рипа

Exact Audio Copy V0.99 prebeta 4 from 23. January 2008
EAC extraction logfile from 2. August 2009, 10:51
Mullova - Dantone / J.S.Bach - Sonatas CD1
Used drive : HL-DT-STDVDRAM GSA-4167B Adapter: 0 ID: 0
Read mode : Secure
Utilize accurate stream : Yes
Defeat audio cache : Yes
Make use of C2 pointers : No
Read offset correction : 667
Overread into Lead-In and Lead-Out : No
Fill up missing offset samples with silence : Yes
Delete leading and trailing silent blocks : No
Null samples used in CRC calculations : Yes
Used interface : Native Win32 interface for Win NT & 2000
Gap handling : Appended to previous track
Used output format : User Defined Encoder
Selected bitrate : 768 kBit/s
Quality : High
Add ID3 tag : No
Command line compressor : C:\Program Files\Exact Audio Copy\FLAC\FLAC.EXE
Additional command line options : -6 -V -T "ARTIST=%a" -T "TITLE=%t" -T "ALBUM=%g" -T "DATE=%y" -T "TRACKNUMBER=%n" -T "GENRE=%m" -T "COMMENT=%e" %s -o %d
TOC of the extracted CD
Track | Start | Length | Start sector | End sector
---------------------------------------------------------
1 | 0:00.00 | 3:11.08 | 0 | 14332
2 | 3:11.08 | 3:00.46 | 14333 | 27878
3 | 6:11.54 | 2:55.53 | 27879 | 41056
4 | 9:07.32 | 3:28.53 | 41057 | 56709
5 | 12:36.10 | 2:47.00 | 56710 | 69234
6 | 15:23.10 | 3:04.05 | 69235 | 83039
7 | 18:27.15 | 3:05.50 | 83040 | 96964
8 | 21:32.65 | 4:44.50 | 96965 | 118314
9 | 26:17.40 | 3:50.15 | 118315 | 135579
10 | 30:07.55 | 2:57.53 | 135580 | 148907
11 | 33:05.33 | 4:21.60 | 148908 | 168542
12 | 37:27.18 | 3:52.11 | 168543 | 185953
13 | 41:19.29 | 4:24.71 | 185954 | 205824
14 | 45:44.25 | 5:05.29 | 205825 | 228728
15 | 50:49.54 | 3:17.54 | 228729 | 243557
Track 1
Filename C:\FLAC\J.S.Bach - Sonatas CD1\01 Mullova - Dantone - Sonata in B minor,BWV 1014 - Adagio.wav
Pre-gap length 0:00:02.00
Peak level 50.4 %
Track quality 100.0 %
Test CRC 24EABFEC
Copy CRC 24EABFEC
Accurately ripped (confidence 9) [C6A7C228]
Copy OK
Track 2
Filename C:\FLAC\J.S.Bach - Sonatas CD1\02 Mullova - Dantone - Sonata in B minor,BWV 1014 - Allegro.wav
Peak level 43.0 %
Track quality 100.0 %
Test CRC BD92E538
Copy CRC BD92E538
Accurately ripped (confidence 8) [A8F73E07]
Copy OK
Track 3
Filename C:\FLAC\J.S.Bach - Sonatas CD1\03 Mullova - Dantone - Sonata in B minor,BWV 1014 - Andante.wav
Peak level 39.6 %
Track quality 100.0 %
Test CRC 7FC17151
Copy CRC 7FC17151
Accurately ripped (confidence 9) [6CA848BB]
Copy OK
Track 4
Filename C:\FLAC\J.S.Bach - Sonatas CD1\04 Mullova - Dantone - Sonata in B minor,BWV 1014 - Allegro.wav
Peak level 76.1 %
Track quality 100.0 %
Test CRC 0F9C8311
Copy CRC 0F9C8311
Accurately ripped (confidence 9) [0AD1A5F2]
Copy OK
Track 5
Filename C:\FLAC\J.S.Bach - Sonatas CD1\05 Mullova - Dantone - Sonata in A,BWV 1015 - Dolce.wav
Peak level 30.0 %
Track quality 100.0 %
Test CRC 0822D72E
Copy CRC 0822D72E
Accurately ripped (confidence 8) [0F9EA932]
Copy OK
Track 6
Filename C:\FLAC\J.S.Bach - Sonatas CD1\06 Mullova - Dantone - Sonata in A,BWV 1015 - Allegro.wav
Peak level 67.8 %
Track quality 100.0 %
Test CRC 7CFB5A3B
Copy CRC 7CFB5A3B
Accurately ripped (confidence 9) [3F430CD0]
Copy OK
Track 7
Filename C:\FLAC\J.S.Bach - Sonatas CD1\07 Mullova - Dantone - Sonata in A,BWV 1015 - Andante un poco.wav
Peak level 42.8 %
Track quality 100.0 %
Test CRC F9E02D84
Copy CRC F9E02D84
Accurately ripped (confidence 9) [7D385FFD]
Copy OK
Track 8
Filename C:\FLAC\J.S.Bach - Sonatas CD1\08 Mullova - Dantone - Sonata in A,BWV 1015 - Presto.wav
Peak level 62.6 %
Track quality 100.0 %
Test CRC 2063E659
Copy CRC 2063E659
Accurately ripped (confidence 9) [FF6355F3]
Copy OK
Track 9
Filename C:\FLAC\J.S.Bach - Sonatas CD1\09 Mullova - Dantone - Sonata in E,BWV 1016 - Adagio.wav
Peak level 44.9 %
Track quality 100.0 %
Test CRC 6F69CA3D
Copy CRC 6F69CA3D
Accurately ripped (confidence 9) [3CC373D2]
Copy OK
Track 10
Filename C:\FLAC\J.S.Bach - Sonatas CD1\10 Mullova - Dantone - Sonata in E,BWV 1016 - Allegro.wav
Peak level 58.6 %
Track quality 100.0 %
Test CRC 11D552AC
Copy CRC 11D552AC
Accurately ripped (confidence 9) [539A5A7C]
Copy OK
Track 11
Filename C:\FLAC\J.S.Bach - Sonatas CD1\11 Mullova - Dantone - Sonata in E,BWV 1016 - Adagio ma non tanto.wav
Peak level 44.8 %
Track quality 100.0 %
Test CRC C35FC60B
Copy CRC C35FC60B
Accurately ripped (confidence 10) [F4BBDA2B]
Copy OK
Track 12
Filename C:\FLAC\J.S.Bach - Sonatas CD1\12 Mullova - Dantone - Sonata in E,BWV 1016 - Allegro.wav
Peak level 61.1 %
Track quality 100.0 %
Test CRC 7507E759
Copy CRC 7507E759
Accurately ripped (confidence 9) [7275F3CE]
Copy OK
Track 13
Filename C:\FLAC\J.S.Bach - Sonatas CD1\13 Mullova - Dantone - Trio Sonata No.5 in C,BWV 529 - Allegro.wav
Peak level 87.0 %
Track quality 100.0 %
Test CRC D85AA08C
Copy CRC D85AA08C
Accurately ripped (confidence 9) [8B6A1188]
Copy OK
Track 14
Filename C:\FLAC\J.S.Bach - Sonatas CD1\14 Mullova - Dantone - Trio Sonata No.5 in C,BWV 529 - Largo.wav
Peak level 47.4 %
Track quality 100.0 %
Test CRC 5A869CD8
Copy CRC 5A869CD8
Accurately ripped (confidence 9) [CE03D04D]
Copy OK
Track 15
Filename C:\FLAC\J.S.Bach - Sonatas CD1\15 Mullova - Dantone - Trio Sonata No.5 in C,BWV 529 - Allegro.wav
Peak level 62.0 %
Track quality 100.0 %
Test CRC 90B9039B
Copy CRC 90B9039B
Accurately ripped (confidence 9) [F48AB99D]
Copy OK
All tracks accurately ripped
No errors occurred
End of status report

Содержание индексной карты (.CUE)

REM DATE 2007
REM DISCID EA0CAF0F
REM COMMENT "ExactAudioCopy v0.99pb4"
PERFORMER "Viktoria Mullova, Ottavio Dantone"
TITLE "Sonatas"
FILE "01. Sonata in C minor, BWV 1017 · I. Adagio.wav" WAVE
TRACK 01 AUDIO
TITLE "I. Adagio"
PERFORMER "Viktoria Mullova, Ottavio Dantone"
FLAGS DCP
INDEX 01 00:00:00
FILE "02. Sonata in C minor, BWV 1017 · II. Allegro.wav" WAVE
TRACK 02 AUDIO
TITLE "II. Allegro"
PERFORMER "Viktoria Mullova, Ottavio Dantone"
FLAGS DCP
INDEX 01 00:00:00
FILE "03. Sonata in C minor, BWV 1017 · III. Andante.wav" WAVE
TRACK 03 AUDIO
TITLE "III. Andante"
PERFORMER "Viktoria Mullova, Ottavio Dantone"
FLAGS DCP
INDEX 01 00:00:00
FILE "04. Sonata in C minor, BWV 1017 · IV. Allegro.wav" WAVE
TRACK 04 AUDIO
TITLE "IV. Allegro"
PERFORMER "Viktoria Mullova, Ottavio Dantone"
FLAGS DCP
INDEX 01 00:00:00
FILE "05. Sonata in A, BWV 1015 · I. Dolce.wav" WAVE
TRACK 05 AUDIO
TITLE "I. Dolce"
PERFORMER "Viktoria Mullova, Ottavio Dantone"
FLAGS DCP
INDEX 01 00:00:00
FILE "06. Sonata in A, BWV 1015 · II. Allegro.wav" WAVE
TRACK 06 AUDIO
TITLE "II. Allegro"
PERFORMER "Viktoria Mullova, Ottavio Dantone"
FLAGS DCP
INDEX 01 00:00:00
FILE "07. Sonata in A, BWV 1015 · III. Andante un poco.wav" WAVE
TRACK 07 AUDIO
TITLE "III. Andante un poco"
PERFORMER "Viktoria Mullova, Ottavio Dantone"
FLAGS DCP
INDEX 01 00:00:00
FILE "08. Sonata in A, BWV 1015 · IV. Presto.wav" WAVE
TRACK 08 AUDIO
TITLE "IV. Presto"
PERFORMER "Viktoria Mullova, Ottavio Dantone"
FLAGS DCP
INDEX 01 00:00:00
FILE "09. Sonata in E, BWV 1016 · I. Adagio.wav" WAVE
TRACK 09 AUDIO
TITLE "I. Adagio"
PERFORMER "Viktoria Mullova, Ottavio Dantone"
FLAGS DCP
INDEX 01 00:00:00
FILE "10. Sonata in E, BWV 1016 · II. Allegro.wav" WAVE
TRACK 10 AUDIO
TITLE "II. Allegro"
PERFORMER "Viktoria Mullova, Ottavio Dantone"
FLAGS DCP
INDEX 01 00:00:00
FILE "11. Sonata in E, BWV 1016 · III. Adagio ma non tanto.wav" WAVE
TRACK 11 AUDIO
TITLE "III. Adagio ma non tanto"
PERFORMER "Viktoria Mullova, Ottavio Dantone"
FLAGS DCP
INDEX 01 00:00:00
FILE "12. Sonata in E, BWV 1016 · IV. Allegro.wav" WAVE
TRACK 12 AUDIO
TITLE "IV. Allegro"
PERFORMER "Viktoria Mullova, Ottavio Dantone"
FLAGS DCP
INDEX 01 00:00:00
FILE "13. Trio Sonata No. 5 in C, BWV 529 · I. Allegro.wav" WAVE
TRACK 13 AUDIO
TITLE "I. Allegro"
PERFORMER "Viktoria Mullova, Ottavio Dantone"
FLAGS DCP
INDEX 01 00:00:00
FILE "14. Trio Sonata No. 5 in C, BWV 529 · II. Largo.wav" WAVE
TRACK 14 AUDIO
TITLE "II. Largo"
PERFORMER "Viktoria Mullova, Ottavio Dantone"
FLAGS DCP
INDEX 01 00:00:00
FILE "15. Trio Sonata No. 5 in C, BWV 529 · III. Allegro.wav" WAVE
TRACK 15 AUDIO
TITLE "III. Allegro"
PERFORMER "Viktoria Mullova, Ottavio Dantone"
FLAGS DCP
INDEX 01 00:00:00

CD 2

Sonata in C minor, BWV 1017 for violin and harpsichord
01. I. Largo (4:25)
02. II. Allegro (4:33)
03. III. Adagio (3:08)
04. IV. Allegro (4:49)
Sonata in F minor, BWV 1018 for violin and harpsichord
05. I. Largo (7:45)
06. II. Allegro (4:37)
07. III. Adagio (3:04)
08. IV. Vivace (2:41)
Sonata in G, BWV 1019 for violin and harpsichord
09. I. Allegro (3:30)
10. II. Largo (1:37)
11. III. Allegro (4:39)
12. IV. Adagio (2:39)
13. V. Allegro (3:24)
Sonata in G, BWV 1021 for violin and continuo
14. I. Adagio (3:41)
15. II. Vivace (0:57)
16. III. Largo (2:15)
17. IV. Presto (1:35)
Продолжительность: 00:59:22

Лог создания рипа

Exact Audio Copy V0.99 prebeta 4 from 23. January 2008
EAC extraction logfile from 2. August 2009, 11:13
Johann Sebastian Bach / Sonatas - Mullova - Dantone - Disc 2
Used drive : HL-DT-STDVDRAM GSA-4167B Adapter: 0 ID: 0
Read mode : Secure
Utilize accurate stream : Yes
Defeat audio cache : Yes
Make use of C2 pointers : No
Read offset correction : 667
Overread into Lead-In and Lead-Out : No
Fill up missing offset samples with silence : Yes
Delete leading and trailing silent blocks : No
Null samples used in CRC calculations : Yes
Used interface : Native Win32 interface for Win NT & 2000
Gap handling : Appended to previous track
Used output format : User Defined Encoder
Selected bitrate : 768 kBit/s
Quality : High
Add ID3 tag : No
Command line compressor : C:\Program Files\Exact Audio Copy\FLAC\FLAC.EXE
Additional command line options : -6 -V -T "ARTIST=%a" -T "TITLE=%t" -T "ALBUM=%g" -T "DATE=%y" -T "TRACKNUMBER=%n" -T "GENRE=%m" -T "COMMENT=%e" %s -o %d
TOC of the extracted CD
Track | Start | Length | Start sector | End sector
---------------------------------------------------------
1 | 0:00.00 | 4:25.36 | 0 | 19910
2 | 4:25.36 | 4:33.22 | 19911 | 40407
3 | 8:58.58 | 3:08.36 | 40408 | 54543
4 | 12:07.19 | 4:49.15 | 54544 | 76233
5 | 16:56.34 | 7:45.35 | 76234 | 111143
6 | 24:41.69 | 4:37.06 | 111144 | 131924
7 | 29:19.00 | 3:04.34 | 131925 | 145758
8 | 32:23.34 | 2:40.61 | 145759 | 157819
9 | 35:04.20 | 3:30.04 | 157820 | 173573
10 | 38:34.24 | 1:36.70 | 173574 | 180843
11 | 40:11.19 | 4:39.12 | 180844 | 201780
12 | 44:50.31 | 2:38.72 | 201781 | 213702
13 | 47:29.28 | 3:24.03 | 213703 | 229005
14 | 50:53.31 | 3:41.27 | 229006 | 245607
15 | 54:34.58 | 0:57.26 | 245608 | 249908
16 | 55:32.09 | 2:14.51 | 249909 | 260009
17 | 57:46.60 | 1:35.21 | 260010 | 267155
Track 1
Filename C:\FLAC\Sonatas - Mullova - Dantone - Disc 2\01 Johann Sebastian Bach - Sonata in C minor (BWV 1017) - I - Largo.wav
Pre-gap length 0:00:02.00
Peak level 41.4 %
Track quality 100.0 %
Test CRC B150416A
Copy CRC B150416A
Accurately ripped (confidence 7) [09DC5F1B]
Copy OK
Track 2
Filename C:\FLAC\Sonatas - Mullova - Dantone - Disc 2\02 Johann Sebastian Bach - Sonata in C minor (BWV 1017) - II - Allegro.wav
Peak level 66.3 %
Track quality 99.9 %
Test CRC E34C6A11
Copy CRC E34C6A11
Accurately ripped (confidence 7) [A43CD498]
Copy OK
Track 3
Filename C:\FLAC\Sonatas - Mullova - Dantone - Disc 2\03 Johann Sebastian Bach - Sonata in C minor (BWV 1017) - III - Adagio.wav
Peak level 46.2 %
Track quality 100.0 %
Test CRC 224FED05
Copy CRC 224FED05
Accurately ripped (confidence 7) [CD9F9B23]
Copy OK
Track 4
Filename C:\FLAC\Sonatas - Mullova - Dantone - Disc 2\04 Johann Sebastian Bach - Sonata in C minor (BWV 1017) - IV - Allegro.wav
Peak level 62.5 %
Track quality 99.9 %
Test CRC 38DFEE21
Copy CRC 38DFEE21
Accurately ripped (confidence 7) [70A49332]
Copy OK
Track 5
Filename C:\FLAC\Sonatas - Mullova - Dantone - Disc 2\05 Johann Sebastian Bach - Sonata in F minor (BWV 1018) - I - Largo.wav
Peak level 38.2 %
Track quality 100.0 %
Test CRC 39E1E25C
Copy CRC 39E1E25C
Accurately ripped (confidence 7) [079D9EC6]
Copy OK
Track 6
Filename C:\FLAC\Sonatas - Mullova - Dantone - Disc 2\06 Johann Sebastian Bach - Sonata in F minor (BWV 1018) - II - Allegro.wav
Peak level 62.8 %
Track quality 100.0 %
Test CRC E64979A8
Copy CRC E64979A8
Accurately ripped (confidence 7) [44998D58]
Copy OK
Track 7
Filename C:\FLAC\Sonatas - Mullova - Dantone - Disc 2\07 Johann Sebastian Bach - Sonata in F minor (BWV 1018) - III - Adagio.wav
Peak level 34.9 %
Track quality 100.0 %
Test CRC F83553EF
Copy CRC F83553EF
Accurately ripped (confidence 7) [358B6B8A]
Copy OK
Track 8
Filename C:\FLAC\Sonatas - Mullova - Dantone - Disc 2\08 Johann Sebastian Bach - Sonata in F minor (BWV 1018) - IV - Vivace.wav
Peak level 62.6 %
Track quality 100.0 %
Test CRC 05CB58DB
Copy CRC 05CB58DB
Accurately ripped (confidence 7) [E17EE0F7]
Copy OK
Track 9
Filename C:\FLAC\Sonatas - Mullova - Dantone - Disc 2\09 Johann Sebastian Bach - Sonata in G (BWV 1019) - I - Allegro.wav
Peak level 68.3 %
Track quality 100.0 %
Test CRC 779A5A42
Copy CRC 779A5A42
Accurately ripped (confidence 7) [54DD9152]
Copy OK
Track 10
Filename C:\FLAC\Sonatas - Mullova - Dantone - Disc 2\10 Johann Sebastian Bach - Sonata in G (BWV 1019) - II - Largo.wav
Peak level 37.0 %
Track quality 100.0 %
Test CRC 1EBFFF48
Copy CRC 1EBFFF48
Accurately ripped (confidence 6) [F4200F4B]
Copy OK
Track 11
Filename C:\FLAC\Sonatas - Mullova - Dantone - Disc 2\11 Johann Sebastian Bach - Sonata in G (BWV 1019) - III - Allegro.wav
Peak level 26.0 %
Track quality 100.0 %
Test CRC 82F33DD5
Copy CRC 82F33DD5
Accurately ripped (confidence 7) [520AEBA5]
Copy OK
Track 12
Filename C:\FLAC\Sonatas - Mullova - Dantone - Disc 2\12 Johann Sebastian Bach - Sonata in G (BWV 1019) - IV - Adagio.wav
Peak level 40.2 %
Track quality 100.0 %
Test CRC E19F84F0
Copy CRC E19F84F0
Accurately ripped (confidence 7) [C7FE51C7]
Copy OK
Track 13
Filename C:\FLAC\Sonatas - Mullova - Dantone - Disc 2\13 Johann Sebastian Bach - Sonata in G (BWV 1019) - V - Allegro.wav
Peak level 56.5 %
Track quality 100.0 %
Test CRC 96C39B89
Copy CRC 96C39B89
Accurately ripped (confidence 7) [9DB86EBF]
Copy OK
Track 14
Filename C:\FLAC\Sonatas - Mullova - Dantone - Disc 2\14 Johann Sebastian Bach - Sonata in G (BWV 1021) - I - Adagio.wav
Peak level 53.1 %
Track quality 100.0 %
Test CRC 5E93D1E7
Copy CRC 5E93D1E7
Accurately ripped (confidence 7) [2765BEBC]
Copy OK
Track 15
Filename C:\FLAC\Sonatas - Mullova - Dantone - Disc 2\15 Johann Sebastian Bach - Sonata in G (BWV 1021) - II - Vivace.wav
Peak level 77.5 %
Track quality 100.0 %
Test CRC 33B5DCB1
Copy CRC 33B5DCB1
Accurately ripped (confidence 7) [AC478E1D]
Copy OK
Track 16
Filename C:\FLAC\Sonatas - Mullova - Dantone - Disc 2\16 Johann Sebastian Bach - Sonata in G (BWV 1021) - III - Largo.wav
Peak level 44.7 %
Track quality 100.0 %
Test CRC DD4BBAE9
Copy CRC DD4BBAE9
Accurately ripped (confidence 7) [0B443D6D]
Copy OK
Track 17
Filename C:\FLAC\Sonatas - Mullova - Dantone - Disc 2\17 Johann Sebastian Bach - Sonata in G (BWV 1021) - IV - Presto.wav
Peak level 69.5 %
Track quality 100.0 %
Test CRC 4777F2AE
Copy CRC 4777F2AE
Accurately ripped (confidence 6) [630E68FF]
Copy OK
All tracks accurately ripped
No errors occurred
End of status report

Содержание индексной карты (.CUE)

REM DATE 2007
REM DISCID EB0DEA11
REM COMMENT "ExactAudioCopy v0.99pb4"
PERFORMER "Viktoria Mullova, Ottavio Dantone"
TITLE "Sonatas"
FILE "01. Sonata in C minor, BWV 1017 · I. Largo.wav" WAVE
TRACK 01 AUDIO
TITLE "I. Largo"
PERFORMER "Viktoria Mullova, Ottavio Dantone"
FLAGS DCP
INDEX 01 00:00:00
FILE "02. Sonata in C minor, BWV 1017 · II. Allegro.wav" WAVE
TRACK 02 AUDIO
TITLE "II. Allegro"
PERFORMER "Viktoria Mullova, Ottavio Dantone"
FLAGS DCP
INDEX 01 00:00:00
FILE "03. Sonata in C minor, BWV 1017 · III. Adagio.wav" WAVE
TRACK 03 AUDIO
TITLE "III. Adagio"
PERFORMER "Viktoria Mullova, Ottavio Dantone"
FLAGS DCP
INDEX 01 00:00:00
FILE "04. Sonata in C minor, BWV 1017 · IV. Allegro.wav" WAVE
TRACK 04 AUDIO
TITLE "IV. Allegro"
PERFORMER "Viktoria Mullova, Ottavio Dantone"
FLAGS DCP
INDEX 01 00:00:00
FILE "05. Sonata in F minor, BWV 1018 · I. Largo.wav" WAVE
TRACK 05 AUDIO
TITLE "I. Largo"
PERFORMER "Viktoria Mullova, Ottavio Dantone"
FLAGS DCP
INDEX 01 00:00:00
FILE "06. Sonata in F minor, BWV 1018 · II. Allegro.wav" WAVE
TRACK 06 AUDIO
TITLE "II. Allegro"
PERFORMER "Viktoria Mullova, Ottavio Dantone"
FLAGS DCP
INDEX 01 00:00:00
FILE "07. Sonata in F minor, BWV 1018 · III. Adagio.wav" WAVE
TRACK 07 AUDIO
TITLE "III. Adagio"
PERFORMER "Viktoria Mullova, Ottavio Dantone"
FLAGS DCP
INDEX 01 00:00:00
FILE "08. Sonata in F minor, BWV 1018 · IV. Vivace.wav" WAVE
TRACK 08 AUDIO
TITLE "IV. Vivace"
PERFORMER "Viktoria Mullova, Ottavio Dantone"
FLAGS DCP
INDEX 01 00:00:00
FILE "09. Sonata in G, BWV 1019 · I. Allegro.wav" WAVE
TRACK 09 AUDIO
TITLE "I. Allegro"
PERFORMER "Viktoria Mullova, Ottavio Dantone"
FLAGS DCP
INDEX 01 00:00:00
FILE "10. Sonata in G, BWV 1019 · II. Largo.wav" WAVE
TRACK 10 AUDIO
TITLE "II. Largo"
PERFORMER "Viktoria Mullova, Ottavio Dantone"
FLAGS DCP
INDEX 01 00:00:00
FILE "11. Sonata in G, BWV 1019 · III. Allegro.wav" WAVE
TRACK 11 AUDIO
TITLE "III. Allegro"
PERFORMER "Viktoria Mullova, Ottavio Dantone"
FLAGS DCP
INDEX 01 00:00:00
FILE "12. Sonata in G, BWV 1019 · IV. Adagio.wav" WAVE
TRACK 12 AUDIO
TITLE "IV. Adagio"
PERFORMER "Viktoria Mullova, Ottavio Dantone"
FLAGS DCP
INDEX 01 00:00:00
FILE "13. Sonata in G, BWV 1019 · V. Allegro.wav" WAVE
TRACK 13 AUDIO
TITLE "V. Allegro"
PERFORMER "Viktoria Mullova, Ottavio Dantone"
FLAGS DCP
INDEX 01 00:00:00
FILE "14. Sonata in G, BWV 1021 · I. Adagio.wav" WAVE
TRACK 14 AUDIO
TITLE "I. Adagio"
PERFORMER "Viktoria Mullova, Ottavio Dantone"
FLAGS DCP
INDEX 01 00:00:00
FILE "15. Sonata in G, BWV 1021 · II. Vivace.wav" WAVE
TRACK 15 AUDIO
TITLE "II. Vivace"
PERFORMER "Viktoria Mullova, Ottavio Dantone"
FLAGS DCP
INDEX 01 00:00:00
FILE "16. Sonata in G, BWV 1021 · III. Largo.wav" WAVE
TRACK 16 AUDIO
TITLE "III. Largo"
PERFORMER "Viktoria Mullova, Ottavio Dantone"
FLAGS DCP
INDEX 01 00:00:00
FILE "17. Sonata in G, BWV 1021 · IV. Presto.wav" WAVE
TRACK 17 AUDIO
TITLE "IV. Presto"
PERFORMER "Viktoria Mullova, Ottavio Dantone"
FLAGS DCP
INDEX 01 00:00:00



Показать сообщения:    

Текущее время: 09-Дек 14:38

Часовой пояс: UTC + 3


Вы не можете начинать темы
Вы не можете отвечать на сообщения
Вы не можете редактировать свои сообщения
Вы не можете удалять свои сообщения
Вы не можете голосовать в опросах
Вы не можете прикреплять файлы к сообщениям
Вы не можете скачивать файлы