Наследник / Væsen (Адриан Декстер / Adrian Dexter) [2012, Дания, авторская анимация, WEBRip-AVC]


 

[Цитировать]

Наследник / Væsen
Страна: Дания
Жанр: авторская анимация
Год выпуска: 2012
Продолжительность: 00:06:11
Перевод: не требуется
Cубтитры: нет
Режиссёр: Адриан Декстер / Adrian Dexter
Композитор: Ник ДиСальво / Nick DiSalvo
Описание: Умирает старый король. По совету мудрецов его сын отправляется в путешествие на далекий остров, чтобы добыть кровь дракона, дарующую бессмертие. Принц ещё не знает, что дракона уже нет в живых...
Качество видео: WEBRip-AVC
Формат видео: MP4
Видео: 2479 kbps, 1280х720 (16:9), 25.000 fps, AVC (High@L3.1)
Аудио: 156 kbps, 44.1 kHz, 2 channels, AAC (LC)

MediaInfo

General
Complete name : Vaesen (2012).mp4
Format : MPEG-4
Format profile : Base Media
Codec ID : isom
File size : 117 MiB
Duration : 6mn 11s
Overall bit rate mode : Variable
Overall bit rate : 2 638 Kbps
Encoded date : UTC 2012-02-15 10:47:56
Tagged date : UTC 2012-02-16 10:47:57
Video
ID : 1
Format : AVC
Format/Info : Advanced Video Codec
Format profile : High@L3.1
Format settings, CABAC : Yes
Format settings, ReFrames : 4 frames
Codec ID : avc1
Codec ID/Info : Advanced Video Coding
Duration : 6mn 11s
Bit rate : 2 479 Kbps
Maximum bit rate : 7 591 Kbps
Width : 1 280 pixels
Height : 720 pixels
Display aspect ratio : 16:9
Frame rate mode : Constant
Frame rate : 25.000 fps
Color space : YUV
Chroma subsampling : 4:2:0
Bit depth : 8 bits
Scan type : Progressive
Bits/(Pixel*Frame) : 0.108
Stream size : 110 MiB (94%)
Writing library : Vimeo Encoder
Encoded date : UTC 2012-02-15 10:47:56
Tagged date : UTC 2012-02-15 10:47:57
Audio
ID : 2
Format : AAC
Format/Info : Advanced Audio Codec
Format profile : LC
Codec ID : 40
Duration : 6mn 11s
Bit rate mode : Variable
Bit rate : 156 Kbps
Maximum bit rate : 251 Kbps
Channel(s) : 2 channels
Channel positions : Front: L R
Sampling rate : 44.1 KHz
Compression mode : Lossy
Stream size : 6.91 MiB (6%)
Encoded date : UTC 2012-02-15 10:47:57
Tagged date : UTC 2012-02-15 10:47:57

Скриншот c названием фильма

Скриншоты




Показать сообщения:    

Текущее время: 04-Дек 11:15

Часовой пояс: UTC + 3


Вы не можете начинать темы
Вы не можете отвечать на сообщения
Вы не можете редактировать свои сообщения
Вы не можете удалять свои сообщения
Вы не можете голосовать в опросах
Вы не можете прикреплять файлы к сообщениям
Вы не можете скачивать файлы