(Opera) Cherubini - Medea (Callas, Barbieri, Penno, Modesti - Orchestra e Coro del Teatro alla Scala, Milano, Bernstein) - 2005, APE (image+.cue) lossless


 

[Цитировать]

Luigi Cherubini - Medea
Жанр: Opera
Страна-производитель диска: Germany
Год издания диска: 2005
Издатель (лейбл): Membran Music
Номер по каталогу: 222388-311
Дата записи: 1953
Аудиокодек: APE
Тип рипа: image+.cue
Битрейт аудио: lossless
Продолжительность: 52'12+77'25
Источник: собственный рип
Наличие сканов в содержимом раздачи: да
Треклист:

CD1

1. Preludio
2. Act I, Scene 1: Che? Quando già corona Amor
3. Act I, Scene 1: O Amore, vieni a me!
4. Act I, Scene 1: No, non temer
5. Act I, Scene 1: O bella Glauce
6. Act I, Scene 1: Ah! Colco! Pensier fatal!
7. Act I, Scene 1: Or che più non vedrò
8. Act I, Scene 1: Ah, già troppo turbò
9. Act I, Scene 1: Pronube dive
10. Act I, Scene 1: Signor! Ferma una donna
11. Act I, Scene 1: Qui tremar devi tu
12. Act I, Scene 1: Taci, Giason
13. Act I, Scene 1: Dei tuoi figli la madre
14. Act I, Scene 1: Son vane qui menacce
15. Act I, Scene 1: Nemici senza cor

CD2

1. Act II: Introduzione
2. Act II: Soffrir non posso
3. Act II: Date almen per pietà
4. Act II: Medea, o Medea!
5. Act II: Solo un pianto con te versare
6. Act II: Creonte a me solo un giorno dà?
7. Act II: Figli miei, miei tesor
8. Act II: Hai dato pronto ascolto
9. Act II: Ah! Triste canto!...Dio dell'Amor!
10. Act III: Introduzione
11. Act III: Numi, venite a me
12. Act III: Del fiero duol che il cor mi frange
13. Act III: Neris, che hai fatto
14. Act III: E che? Io son Medea!
Исполнители:
Luigi Cherubini - Medea
Medea - Maria Callas, soprano
Neris - Fedora Barbieri, soprano
Glauce - Maria Luisa Nache, soprano
Giasone - Gino Penno, tenor
Creonte - Giuseppe Modesti, bariton
Captain - Enrico Campi, bass
Orchestra e Coro del Teatro alla Scala, Milano
Leonard Bernstein
1953
Peformed in Italian

Лог создания рипа

CD1

Exact Audio Copy V1.0 beta 6 from 9. April 2015
EAC extraction logfile from 3. September 2015, 13:36
Callas, Barbieri, Nache, Penno - Coro E Orchestra Alla Scala / Cherubini - Medea, Bernstein CD1
Used drive : TSSTcorpCDDVDW SE-208AB Adapter: 1 ID: 2
Read mode : Secure
Utilize accurate stream : Yes
Defeat audio cache : Yes
Make use of C2 pointers : No
Read offset correction : 6
Overread into Lead-In and Lead-Out : No
Fill up missing offset samples with silence : Yes
Delete leading and trailing silent blocks : No
Null samples used in CRC calculations : Yes
Used interface : Native Win32 interface for Win NT & 2000
Used output format : Monkey's Audio Lossless Encoder
Selected bitrate : High Lossless Compression
Quality : High
Add ID3 tag : Yes
Command line compressor : C:\Program Files (x86)\Exact Audio Copy\MAC\MAC.exe
TOC of the extracted CD
Track | Start | Length | Start sector | End sector
---------------------------------------------------------
1 | 0:00.00 | 6:22.56 | 0 | 28705
2 | 6:22.56 | 6:23.04 | 28706 | 57434
3 | 12:45.60 | 3:10.31 | 57435 | 71715
4 | 15:56.16 | 2:12.00 | 71716 | 81615
5 | 18:08.16 | 2:48.71 | 81616 | 94286
6 | 20:57.12 | 1:58.32 | 94287 | 103168
7 | 22:55.44 | 3:11.04 | 103169 | 117497
8 | 26:06.48 | 0:37.67 | 117498 | 120339
9 | 26:44.40 | 6:02.39 | 120340 | 147528
10 | 32:47.04 | 3:57.12 | 147529 | 165315
11 | 36:44.16 | 2:14.16 | 165316 | 175381
12 | 38:58.32 | 2:38.28 | 175382 | 187259
13 | 41:36.60 | 5:09.71 | 187260 | 210505
14 | 46:46.56 | 0:29.39 | 210506 | 212719
15 | 47:16.20 | 4:56.33 | 212720 | 234952
Range status and errors
Selected range
Filename D:\EAC\Cherubini - Medea, Bernstein CD1.wav
Peak level 99.9 %
Extraction speed 4.6 X
Range quality 100.0 %
Test CRC 7CE950A3
Copy CRC 7CE950A3
Copy OK
No errors occurred
AccurateRip summary
Track 1 accurately ripped (confidence 3) [2D058178] (AR v2)
Track 2 accurately ripped (confidence 3) [6FB59B19] (AR v2)
Track 3 accurately ripped (confidence 3) [6C6BE844] (AR v2)
Track 4 accurately ripped (confidence 3) [81500830] (AR v2)
Track 5 accurately ripped (confidence 3) [CBBE7537] (AR v2)
Track 6 accurately ripped (confidence 3) [A919364F] (AR v2)
Track 7 accurately ripped (confidence 3) [E579FABC] (AR v2)
Track 8 accurately ripped (confidence 3) [221FE601] (AR v2)
Track 9 accurately ripped (confidence 3) [10C7CBD7] (AR v2)
Track 10 accurately ripped (confidence 3) [F36CAEC7] (AR v2)
Track 11 accurately ripped (confidence 3) [AECB8F30] (AR v2)
Track 12 accurately ripped (confidence 3) [93D1446D] (AR v2)
Track 13 accurately ripped (confidence 3) [6AC56D16] (AR v2)
Track 14 accurately ripped (confidence 3) [5349BAC4] (AR v2)
Track 15 accurately ripped (confidence 3) [E1E3D550] (AR v2)
All tracks accurately ripped
End of status report
---- CUETools DB Plugin V2.1.6
[CTDB TOCID: Wb8.DYAiPs8yJqYq13Nivl9Dwsg-] found
Submit result: Wb8.DYAiPs8yJqYq13Nivl9Dwsg- has been confirmed
Track | CTDB Status
1 | (7/7) Accurately ripped
2 | (7/7) Accurately ripped
3 | (7/7) Accurately ripped
4 | (7/7) Accurately ripped
5 | (7/7) Accurately ripped
6 | (7/7) Accurately ripped
7 | (7/7) Accurately ripped
8 | (7/7) Accurately ripped
9 | (7/7) Accurately ripped
10 | (7/7) Accurately ripped
11 | (7/7) Accurately ripped
12 | (7/7) Accurately ripped
13 | (7/7) Accurately ripped
14 | (7/7) Accurately ripped
15 | (7/7) Accurately ripped
==== Log checksum F907E79B881D011420F515CDCE7238F8DCD81AF8328D6609969F9A30C9D4335A ====

CD2

Exact Audio Copy V1.0 beta 6 from 9. April 2015
EAC extraction logfile from 3. September 2015, 13:43
Callas, Barbieri, Nache, Penno - Coro E Orchestra Alla Scala / Cherubini - Medea, Bernstein CD2
Used drive : TS8XDVDSTRANSCEND Adapter: 1 ID: 1
Read mode : Secure
Utilize accurate stream : Yes
Defeat audio cache : Yes
Make use of C2 pointers : No
Read offset correction : 6
Overread into Lead-In and Lead-Out : No
Fill up missing offset samples with silence : Yes
Delete leading and trailing silent blocks : No
Null samples used in CRC calculations : Yes
Used interface : Native Win32 interface for Win NT & 2000
Used output format : Monkey's Audio Lossless Encoder
Selected bitrate : High Lossless Compression
Quality : High
Add ID3 tag : Yes
Command line compressor : C:\Program Files (x86)\Exact Audio Copy\MAC\MAC.exe
TOC of the extracted CD
Track | Start | Length | Start sector | End sector
---------------------------------------------------------
1 | 0:00.00 | 1:41.28 | 0 | 7602
2 | 1:41.28 | 2:45.48 | 7603 | 20025
3 | 4:27.01 | 11:16.67 | 20026 | 70792
4 | 15:43.68 | 1:42.11 | 70793 | 78453
5 | 17:26.04 | 9:11.28 | 78454 | 119806
6 | 26:37.32 | 2:29.40 | 119807 | 131021
7 | 29:06.72 | 7:07.19 | 131022 | 163065
8 | 36:14.16 | 1:21.56 | 163066 | 169196
9 | 37:35.72 | 10:26.11 | 169197 | 216157
10 | 48:02.08 | 4:59.27 | 216158 | 238609
11 | 53:01.35 | 5:34.32 | 238610 | 263691
12 | 58:35.67 | 2:47.04 | 263692 | 276220
13 | 61:22.71 | 2:10.20 | 276221 | 285990
14 | 63:33.16 | 13:52.02 | 285991 | 348392
Range status and errors
Selected range
Filename D:\EAC\Cherubini - Medea, Bernstein CD2.wav
Peak level 99.8 %
Extraction speed 5.3 X
Range quality 100.0 %
Test CRC 38B6A45B
Copy CRC 38B6A45B
Copy OK
No errors occurred
AccurateRip summary
Track 1 accurately ripped (confidence 3) [FBD92CF5] (AR v2)
Track 2 accurately ripped (confidence 3) [84D69496] (AR v2)
Track 3 accurately ripped (confidence 3) [EB4F84A8] (AR v2)
Track 4 accurately ripped (confidence 3) [51702347] (AR v2)
Track 5 accurately ripped (confidence 3) [DDAECC5A] (AR v2)
Track 6 accurately ripped (confidence 3) [717B22FF] (AR v2)
Track 7 accurately ripped (confidence 3) [BB0EAD62] (AR v2)
Track 8 accurately ripped (confidence 3) [D57F8BB4] (AR v2)
Track 9 accurately ripped (confidence 3) [35058DCF] (AR v2)
Track 10 accurately ripped (confidence 3) [EB20228A] (AR v2)
Track 11 accurately ripped (confidence 3) [B1BE6590] (AR v2)
Track 12 accurately ripped (confidence 3) [10321446] (AR v2)
Track 13 accurately ripped (confidence 3) [E36A0E13] (AR v2)
Track 14 accurately ripped (confidence 3) [51379BCC] (AR v2)
All tracks accurately ripped
End of status report
---- CUETools DB Plugin V2.1.6
[CTDB TOCID: lZYKlDZg3zp7JfASjfpuGqTGfGw-] found
Submit result: unrecognized or virtual drive
Track | CTDB Status
1 | (7/7) Accurately ripped
2 | (7/7) Accurately ripped
3 | (7/7) Accurately ripped
4 | (7/7) Accurately ripped
5 | (7/7) Accurately ripped
6 | (7/7) Accurately ripped
7 | (7/7) Accurately ripped
8 | (7/7) Accurately ripped
9 | (7/7) Accurately ripped
10 | (7/7) Accurately ripped
11 | (7/7) Accurately ripped
12 | (7/7) Accurately ripped
13 | (7/7) Accurately ripped
14 | (7/7) Accurately ripped
==== Log checksum 5D78C34867C1B26ED47668E64B6D925383C92CE51475CBC3CD1229CF0B344104 ====

Содержание индексной карты (.CUE)

CD1

REM GENRE Opera
REM DATE 1953
REM DISCID F30C3C0F
REM COMMENT "ExactAudioCopy v1.0b6"
PERFORMER "Callas, Barbieri, Nache, Penno - Coro E Orchestra Alla Scala"
TITLE "Cherubini - Medea, Bernstein CD1"
FILE "Cherubini - Medea, Bernstein CD1.ape" WAVE
TRACK 01 AUDIO
TITLE "Preludio"
PERFORMER "Callas, Barbieri, Nache, Penno - Coro E Orchestra Alla Scala"
ISRC DEU240450607
INDEX 01 00:00:00
TRACK 02 AUDIO
TITLE "Act I: Che? Quando gia corona Amor"
PERFORMER "Callas, Barbieri, Nache, Penno - Coro E Orchestra Alla Scala"
ISRC DEU240450608
INDEX 01 06:22:56
TRACK 03 AUDIO
TITLE "O Amore, vieni a me!"
PERFORMER "Callas, Barbieri, Nache, Penno - Coro E Orchestra Alla Scala"
ISRC DEU240450609
INDEX 01 12:45:60
TRACK 04 AUDIO
TITLE "No, non temer"
PERFORMER "Callas, Barbieri, Nache, Penno - Coro E Orchestra Alla Scala"
ISRC DEU240450610
INDEX 01 15:56:16
TRACK 05 AUDIO
TITLE "O bella Glauce"
PERFORMER "Callas, Barbieri, Nache, Penno - Coro E Orchestra Alla Scala"
ISRC DEU240450611
INDEX 01 18:08:16
TRACK 06 AUDIO
TITLE "Ah! Colco! Pensier fatal!"
PERFORMER "Callas, Barbieri, Nache, Penno - Coro E Orchestra Alla Scala"
ISRC DEU240450612
INDEX 01 20:57:12
TRACK 07 AUDIO
TITLE "Or che piu non vedro"
PERFORMER "Callas, Barbieri, Nache, Penno - Coro E Orchestra Alla Scala"
ISRC DEU240450613
INDEX 01 22:55:44
TRACK 08 AUDIO
TITLE "Ah! gia troppo turbo"
PERFORMER "Callas, Barbieri, Nache, Penno - Coro E Orchestra Alla Scala"
ISRC DEU240450614
INDEX 01 26:06:48
TRACK 09 AUDIO
TITLE "Pronube dive"
PERFORMER "Callas, Barbieri, Nache, Penno - Coro E Orchestra Alla Scala"
ISRC DEU240450615
INDEX 01 26:44:40
TRACK 10 AUDIO
TITLE "Signor! Ferma una donna"
PERFORMER "Callas, Barbieri, Nache, Penno - Coro E Orchestra Alla Scala"
ISRC DEU240450616
INDEX 01 32:47:04
TRACK 11 AUDIO
TITLE "Qui tremar devi tu"
PERFORMER "Callas, Barbieri, Nache, Penno - Coro E Orchestra Alla Scala"
ISRC DEU240450617
INDEX 01 36:44:16
TRACK 12 AUDIO
TITLE "Taci, Giasone"
PERFORMER "Callas, Barbieri, Nache, Penno - Coro E Orchestra Alla Scala"
ISRC DEU240450618
INDEX 01 38:58:32
TRACK 13 AUDIO
TITLE "Dei tuoi figli la madre"
PERFORMER "Callas, Barbieri, Nache, Penno - Coro E Orchestra Alla Scala"
ISRC DEU240450619
INDEX 01 41:36:60
TRACK 14 AUDIO
TITLE "Son vane qui minacce"
PERFORMER "Callas, Barbieri, Nache, Penno - Coro E Orchestra Alla Scala"
ISRC DEU240450620
INDEX 01 46:46:56
TRACK 15 AUDIO
TITLE "Nemici senza cor"
PERFORMER "Callas, Barbieri, Nache, Penno - Coro E Orchestra Alla Scala"
ISRC DEU240450621
INDEX 01 47:16:20

CD2

REM GENRE Opera
REM DATE 1953
REM DISCID DD12250E
REM COMMENT "ExactAudioCopy v1.0b6"
PERFORMER "Callas, Barbieri, Nache, Penno - Coro E Orchestra Alla Scala"
TITLE "Cherubini - Medea, Bernstein CD2"
FILE "Cherubini - Medea, Bernstein CD2.ape" WAVE
TRACK 01 AUDIO
TITLE "Act II: Introduzione"
PERFORMER "Callas, Barbieri, Nache, Penno - Coro E Orchestra Alla Scala"
ISRC DEU240450622
INDEX 01 00:00:00
TRACK 02 AUDIO
TITLE "Soffrir non posso"
PERFORMER "Callas, Barbieri, Nache, Penno - Coro E Orchestra Alla Scala"
ISRC DEU240450623
INDEX 01 01:41:28
TRACK 03 AUDIO
TITLE "Date almen per pieta"
PERFORMER "Callas, Barbieri, Nache, Penno - Coro E Orchestra Alla Scala"
ISRC DEU240450624
INDEX 01 04:27:01
TRACK 04 AUDIO
TITLE "Medea, o Medea!"
PERFORMER "Callas, Barbieri, Nache, Penno - Coro E Orchestra Alla Scala"
ISRC DEU240450625
INDEX 01 15:43:68
TRACK 05 AUDIO
TITLE "Solo un pianto con te versare"
PERFORMER "Callas, Barbieri, Nache, Penno - Coro E Orchestra Alla Scala"
ISRC DEU240450626
INDEX 01 17:26:04
TRACK 06 AUDIO
TITLE "Creonte a me solo un giorno da?"
PERFORMER "Callas, Barbieri, Nache, Penno - Coro E Orchestra Alla Scala"
ISRC DEU240450627
INDEX 01 26:37:32
TRACK 07 AUDIO
TITLE "Figli miei, miei tesor"
PERFORMER "Callas, Barbieri, Nache, Penno - Coro E Orchestra Alla Scala"
ISRC DEU240450628
INDEX 01 29:06:72
TRACK 08 AUDIO
TITLE "Hai dato pronto ascolto"
PERFORMER "Callas, Barbieri, Nache, Penno - Coro E Orchestra Alla Scala"
ISRC DEU240450629
INDEX 01 36:14:16
TRACK 09 AUDIO
TITLE "Ah! Triste canto!... Dio dell'Amor!"
PERFORMER "Callas, Barbieri, Nache, Penno - Coro E Orchestra Alla Scala"
ISRC DEU240450630
INDEX 01 37:35:72
TRACK 10 AUDIO
TITLE "Act III: Introduzione"
PERFORMER "Callas, Barbieri, Nache, Penno - Coro E Orchestra Alla Scala"
ISRC DEU240450631
INDEX 01 48:02:08
TRACK 11 AUDIO
TITLE "Numi, venite a me"
PERFORMER "Callas, Barbieri, Nache, Penno - Coro E Orchestra Alla Scala"
ISRC DEU240450632
INDEX 01 53:01:35
TRACK 12 AUDIO
TITLE "Del fiero duol che il cor mi frange"
PERFORMER "Callas, Barbieri, Nache, Penno - Coro E Orchestra Alla Scala"
ISRC DEU240450633
INDEX 01 58:35:67
TRACK 13 AUDIO
TITLE "Neris, che hai fatto"
PERFORMER "Callas, Barbieri, Nache, Penno - Coro E Orchestra Alla Scala"
ISRC DEU240450634
INDEX 01 61:22:71
TRACK 14 AUDIO
TITLE "E che? Io son Medea"
PERFORMER "Callas, Barbieri, Nache, Penno - Coro E Orchestra Alla Scala"
ISRC DEU240450635
INDEX 01 63:33:16



Показать сообщения:    

Текущее время: 05-Дек 03:28

Часовой пояс: UTC + 3


Вы не можете начинать темы
Вы не можете отвечать на сообщения
Вы не можете редактировать свои сообщения
Вы не можете удалять свои сообщения
Вы не можете голосовать в опросах
Вы не можете прикреплять файлы к сообщениям
Вы не можете скачивать файлы