(Opera) Cherubini - Medee [Excerps] (Gorr, Chauvet, Exposito, Bianco - Choeurs & Orchestre du Theatre National de L'Opera de Paris, Pretre) - 1998, APE (image+.cue) lossless


 

[Цитировать]

Luigi Cherubini - Medée [Excerps]
Жанр: Opera
Страна-производитель диска: France
Год издания диска: 1998
Издатель (лейбл): EMI
Номер по каталогу: 7243 5 73092 2 6
Дата записи: 1962
Аудиокодек: APE
Тип рипа: image+.cue
Битрейт аудио: lossless
Продолжительность: 41'09
Источник: собственный рип
Треклист
1. Ouverture
2. ACTE I Hymen. viens dissiper une vaine frayeur
3. ACTE I Eloigné pour jamais d'une épouse cruelle
4. ACTE I C'est à vous de trembler. femme impie
5. ACTE I Vous voyez, de vos fils, la mère infortunée
6. ACTE I Perfides ennemies qui conspirez ma peine
7. ACTE II Chers enfants, il faut que je vous abandonne
8. ACTE III Du trouble affreux qui me dévore
9. ACTE III Eh quoi ! Je suis Médée
Исполнители:
Luigi Cherubini - Medée [Excerps]
Medée - Rita Gorr
Jason - Guy Chauvet
Glaucé - Andrée Exposito
Créonte - René Bianco
Choeurs & Orchestre du Théâtre National de L'Opéra de Paris
Georges Prêtre
1962
Performed in French

Лог создания рипа

Exact Audio Copy V1.0 beta 6 from 9. April 2015
EAC extraction logfile from 19. August 2015, 17:25
Cherubini / Médée [Excerpts], Prêtre
Used drive : TSSTcorpCDDVDW SE-208AB Adapter: 1 ID: 2
Read mode : Secure
Utilize accurate stream : Yes
Defeat audio cache : Yes
Make use of C2 pointers : No
Read offset correction : 6
Overread into Lead-In and Lead-Out : No
Fill up missing offset samples with silence : Yes
Delete leading and trailing silent blocks : No
Null samples used in CRC calculations : Yes
Used interface : Native Win32 interface for Win NT & 2000
Used output format : Monkey's Audio Lossless Encoder
Selected bitrate : High Lossless Compression
Quality : High
Add ID3 tag : Yes
Command line compressor : C:\Program Files (x86)\Exact Audio Copy\MAC\MAC.exe
TOC of the extracted CD
Track | Start | Length | Start sector | End sector
---------------------------------------------------------
1 | 0:00.00 | 5:58.32 | 0 | 26881
2 | 5:58.32 | 5:04.43 | 26882 | 49724
3 | 11:03.00 | 3:19.07 | 49725 | 64656
4 | 14:22.07 | 2:05.48 | 64657 | 74079
5 | 16:27.55 | 4:15.12 | 74080 | 93216
6 | 20:42.67 | 4:43.43 | 93217 | 114484
7 | 25:26.35 | 6:12.30 | 114485 | 142414
8 | 31:38.65 | 4:24.07 | 142415 | 162221
9 | 36:02.72 | 5:06.30 | 162222 | 185201
Range status and errors
Selected range
Filename D:\EAC\Cherubini - Médée [Excerpts], Prêtre.wav
Peak level 92.2 %
Extraction speed 1.7 X
Range quality 100.0 %
Test CRC 1F074EB4
Copy CRC 1F074EB4
Copy OK
No errors occurred
AccurateRip summary
Track 1 accurately ripped (confidence 2) [336896E3] (AR v1)
Track 2 accurately ripped (confidence 2) [8569ED8B] (AR v1)
Track 3 accurately ripped (confidence 2) [014C9B0D] (AR v1)
Track 4 accurately ripped (confidence 2) [5D7D5C76] (AR v1)
Track 5 accurately ripped (confidence 2) [F957A9D4] (AR v1)
Track 6 accurately ripped (confidence 2) [A538DA49] (AR v1)
Track 7 accurately ripped (confidence 2) [08FD3BFD] (AR v1)
Track 8 accurately ripped (confidence 2) [4699681B] (AR v1)
Track 9 accurately ripped (confidence 2) [4E1C1655] (AR v1)
All tracks accurately ripped
End of status report
---- CUETools DB Plugin V2.1.6
[CTDB TOCID: _o68QxmxGzE2jGWoDZU3t8_bJkw-] found
Submit result: _o68QxmxGzE2jGWoDZU3t8_bJkw- has been confirmed
Track | CTDB Status
1 | (1/1) Accurately ripped
2 | (1/1) Accurately ripped
3 | (1/1) Accurately ripped
4 | (1/1) Accurately ripped
5 | (1/1) Accurately ripped
6 | (1/1) Accurately ripped
7 | (1/1) Accurately ripped
8 | (1/1) Accurately ripped
9 | (1/1) Accurately ripped
==== Log checksum CD3156552B34CF637AE828DC97D0FD493EB0C6BAAEE659C9BF728D679E0B6EAA ====

Содержание индексной карты (.CUE)

REM GENRE Opera
REM DATE 1962
REM DISCID 7A09A509
REM COMMENT "ExactAudioCopy v1.0b6"
CATALOG 0000000000000
PERFORMER "Cherubini"
TITLE "Médée [Excerpts], Prêtre"
FILE "Cherubini - Médée [Excerpts], Prêtre.ape" WAVE
TRACK 01 AUDIO
TITLE "Ouverture"
PERFORMER "Gorr, Chauvet, Exposito, L'Opéra National de Paris"
ISRC FRZ116201080
INDEX 01 00:00:00
TRACK 02 AUDIO
TITLE "ACTE I Hymen. viens dissiper une vaine frayeur..."
PERFORMER "Gorr, Chauvet, Exposito, L'Opéra National de Paris"
ISRC FRZ116201090
INDEX 00 05:54:70
INDEX 01 05:58:32
TRACK 03 AUDIO
TITLE "ACTE I Eloigné pour jamais d'une épouse cruelle..."
PERFORMER "Gorr, Chauvet, Exposito, L'Opéra National de Paris"
ISRC FRZ116201100
INDEX 00 11:00:18
INDEX 01 11:03:00
TRACK 04 AUDIO
TITLE "ACTE I C'est à vous de trembler. femme impie.."
PERFORMER "Gorr, Chauvet, Exposito, L'Opéra National de Paris"
ISRC FRZ116201110
INDEX 00 14:19:25
INDEX 01 14:22:07
TRACK 05 AUDIO
TITLE "ACTE I Vous voyez, de vos fils, la mère infortunée..."
PERFORMER "Gorr, Chauvet, Exposito, L'Opéra National de Paris"
ISRC FRZ116201120
INDEX 00 16:25:00
INDEX 01 16:27:55
TRACK 06 AUDIO
TITLE "ACTEI Perfides ennemies qui conspirez ma peine..."
PERFORMER "Gorr, Chauvet, Exposito, L'Opéra National de Paris"
ISRC FRZ116201130
INDEX 00 20:39:13
INDEX 01 20:42:67
TRACK 07 AUDIO
TITLE "ACTE Il Chers enfants, il faut que je vous abandonne..."
PERFORMER "Gorr, Chauvet, Exposito, L'Opéra National de Paris"
ISRC FRZ116201140
INDEX 00 25:22:63
INDEX 01 25:26:35
TRACK 08 AUDIO
TITLE "ACTE III Du trouble affreux qui me dévore..."
PERFORMER "Gorr, Chauvet, Exposito, L'Opéra National de Paris"
ISRC FRZ116201150
INDEX 00 31:35:25
INDEX 01 31:38:65
TRACK 09 AUDIO
TITLE "ACTE III Eh quoi ! Je suis Médée !.."
PERFORMER "Gorr, Chauvet, Exposito, L'Opéra National de Paris"
ISRC FRZ116201160
INDEX 00 36:00:55
INDEX 01 36:02:72



Показать сообщения:    

Текущее время: 06-Дек 13:11

Часовой пояс: UTC + 3


Вы не можете начинать темы
Вы не можете отвечать на сообщения
Вы не можете редактировать свои сообщения
Вы не можете удалять свои сообщения
Вы не можете голосовать в опросах
Вы не можете прикреплять файлы к сообщениям
Вы не можете скачивать файлы