(Classical) Franz Danzi - Wind Quintets, Vol.2 (Opp.56, 41) - Berlin Philharmonic Wind Quintet, Love Derwinger- 1992, FLAC (image+.cue) lossless


 

[Цитировать]

Franz Danzi - Wind Quintets, Vol.2 (Opp.56, 41) - Berlin Philharmonic Wind Quintet, Love Derwinger
Жанр: Classical
Страна-производитель диска: Sweden
Год издания диска: 1992
Издатель (лейбл): BIS
Номер по каталогу: BIS-CD-552
Дата записи: 1991
Аудиокодек: FLAC
Тип рипа: image+.cue
Битрейт аудио: lossless
Продолжительность: 78:20
Источник: собственный рип
Наличие сканов в содержимом раздачи: да
Треклист:
Franz Danzi (1763-1826)
[1]-[4] Wind Quintet in B flat major, Op.56 No.1
[5]-[8] Wind Quintet in G minor, Op.56 No.2
[9]-[12] Wind Quintet in F major, Op.56 No.3
[13]-[15] Quintet in D minor, Op.41
for Piano, Oboe, Clarinet, Horn and Bassoon
Исполнители:
Berlin Philharmonic Wind Quintet
Michael Hasel flute
Andreas Wittmann oboe
Walter Seyfarth clarinet
Fergus McWilliam horn
Henning Trog bassoon
Love Derwinger piano

Лог создания рипа

Exact Audio Copy V1.0 beta 3 from 29. August 2011
EAC extraction logfile from 7. February 2015, 10:15
Berlin Philharmonic Wind Quintet / Danzi - Wind Quintets, Vol.2
Used drive : HL-DT-STDVDRAM GU70N Adapter: 0 ID: 0
Read mode : Secure
Utilize accurate stream : Yes
Defeat audio cache : Yes
Make use of C2 pointers : No
Read offset correction : 48
Overread into Lead-In and Lead-Out : No
Fill up missing offset samples with silence : Yes
Delete leading and trailing silent blocks : No
Null samples used in CRC calculations : Yes
Used interface : Native Win32 interface for Win NT & 2000
Used output format : User Defined Encoder
Selected bitrate : 128 kBit/s
Quality : High
Add ID3 tag : No
Command line compressor : C:\Program Files (x86)\Exact Audio Copy\Flac\flac.exe
Additional command line options : -V -8 -T "Date=%year%" -T "Genre=%genre%" %source%
TOC of the extracted CD
Track | Start | Length | Start sector | End sector
---------------------------------------------------------
1 | 0:00.00 | 7:52.00 | 0 | 35399
2 | 7:52.00 | 3:05.50 | 35400 | 49324
3 | 10:57.50 | 2:26.12 | 49325 | 60286
4 | 13:23.62 | 2:43.13 | 60287 | 72524
5 | 16:07.00 | 5:45.00 | 72525 | 98399
6 | 21:52.00 | 4:36.37 | 98400 | 119136
7 | 26:28.37 | 2:45.10 | 119137 | 131521
8 | 29:13.47 | 3:00.28 | 131522 | 145049
9 | 32:14.00 | 10:19.00 | 145050 | 191474
10 | 42:33.00 | 3:28.37 | 191475 | 207111
11 | 46:01.37 | 5:02.13 | 207112 | 229774
12 | 51:03.50 | 4:00.25 | 229775 | 247799
13 | 55:04.00 | 10:00.00 | 247800 | 292799
14 | 65:04.00 | 7:30.25 | 292800 | 326574
15 | 72:34.25 | 5:45.50 | 326575 | 352499
Range status and errors
Selected range
Filename C:\temp\BIS-CD-0552 - Danzi - Wind Quintets, Vol.2\Danzi - Wind Quintets, Vol.2.wav
Peak level 98.5 %
Extraction speed 2.3 X
Range quality 100.0 %
Test CRC 53AFCA2F
Copy CRC 53AFCA2F
Copy OK
No errors occurred
AccurateRip summary
Track 1 accurately ripped (confidence 2) [9454B770] (AR v1)
Track 2 accurately ripped (confidence 2) [0D72B8C5] (AR v1)
Track 3 accurately ripped (confidence 2) [BA4BB50D] (AR v1)
Track 4 accurately ripped (confidence 2) [04ECB083] (AR v1)
Track 5 accurately ripped (confidence 2) [229BED54] (AR v1)
Track 6 accurately ripped (confidence 2) [2485B575] (AR v1)
Track 7 accurately ripped (confidence 2) [122F1B0F] (AR v1)
Track 8 accurately ripped (confidence 2) [91EBBF73] (AR v1)
Track 9 accurately ripped (confidence 2) [17511DAB] (AR v1)
Track 10 accurately ripped (confidence 2) [028EFAB7] (AR v1)
Track 11 accurately ripped (confidence 2) [8792552E] (AR v1)
Track 12 accurately ripped (confidence 2) [5B85F76A] (AR v1)
Track 13 accurately ripped (confidence 2) [8734F877] (AR v1)
Track 14 accurately ripped (confidence 2) [AE58F9F7] (AR v1)
Track 15 accurately ripped (confidence 2) [45BEC16A] (AR v1)
All tracks accurately ripped
End of status report
==== Log checksum 3B420A97B83FEDCF17443227026E47CBE6889CDC781D17F10CC6E9BB7A713B82 ====



Показать сообщения:    

Текущее время: 08-Дек 19:01

Часовой пояс: UTC + 3


Вы не можете начинать темы
Вы не можете отвечать на сообщения
Вы не можете редактировать свои сообщения
Вы не можете удалять свои сообщения
Вы не можете голосовать в опросах
Вы не можете прикреплять файлы к сообщениям
Вы не можете скачивать файлы