(Classical) Дмитрий Шостакович (Shostakovich) — The Complete String Quartets (Quatuor Danel) — 2006, APE (image+.cue) lossless


 

[Цитировать]

The Complete String Quartets-
Жанр: Classical
Страна-производитель комплекта: Великобритания
Год издания комплекта: 2006
Годы записи фонограмм: 2001-2005
Издатель (лейбл): Fuga Libera
Номер по каталогу: FUG512
Композитор: Дмитрий Шостакович
Исполнительский коллектив: Quatuor Danel
Аудио кодек: ape
Тип рипа: image+.cue
Битрейт аудио: lossless
Продолжительность: 06h26'17"
Источник: thepiratebay
Наличие сканов в содержимом раздачи: нет-

Треклист

CD 1 – 01h19'52"
String Quartet № 2 A-Dur Op 68
01. I. Overture: Moderato con moto [08'21"]
02. II. Recitative and Romance: Adagio [10'29"]
03. III. Waltz: Allegro [05'33"]
04. IV. Theme with Variations: Adagio [10'35"]
String Quartet № 7 fis-moll Op 108
05. I. Allegretto [03'32"]
06. II. Lento [03'16"]
07. III. Allegro [05'48"]
String Quartet № 5 B-Dur Op 92
08. I. Allegretto non troppo [11'14"]
09. II. Andante [09'41"]
10. III. Moderato - Allegretto [11'21"]-

CUE

REM GENRE "Classical"
REM DISCID 6612B70A
PERFORMER "Shostakovich"
TITLE "The Complete String Quartets CD 1"
REM DATE 2006
REM DISCNUMBER 1
REM TOTALDISCS 5
FILE "The Complete String Quartets CD 1.ape" WAVE
TRACK 01 AUDIO
PERFORMER "Shostakovich"
TITLE "String Quartet 2 A Op 68 – I. Overture: Moderato con moto"
INDEX 01 00:00:00
TRACK 02 AUDIO
PERFORMER "Shostakovich"
TITLE "String Quartet 2 A Op 68 – II. Recitative and Romance: Adagio"
INDEX 01 08:21:36
TRACK 03 AUDIO
PERFORMER "Shostakovich"
TITLE "String Quartet 2 A Op 68 – III. Waltz: Allegro"
INDEX 01 18:50:39
TRACK 04 AUDIO
PERFORMER "Shostakovich"
TITLE "String Quartet 2 A Op 68 – IV. Theme with Variations: Adagio"
INDEX 01 24:23:67
TRACK 05 AUDIO
PERFORMER "Shostakovich"
TITLE "String Quartet 7 fis Op 108 – I. Allegretto"
INDEX 01 34:58:63
TRACK 06 AUDIO
PERFORMER "Shostakovich"
TITLE "String Quartet 7 fis Op 108 – II. Lento"
INDEX 01 38:30:73
TRACK 07 AUDIO
PERFORMER "Shostakovich"
TITLE "String Quartet 7 fis Op 108 – III. Allegro"
INDEX 01 41:47:08
TRACK 08 AUDIO
PERFORMER "Shostakovich"
TITLE "String Quartet 5 B Op 92 – I. Allegretto non troppo"
INDEX 01 47:35:31
TRACK 09 AUDIO
PERFORMER "Shostakovich"
TITLE "String Quartet 5 B Op 92 – II. Andante"
INDEX 01 58:49:42
TRACK 10 AUDIO
PERFORMER "Shostakovich"
TITLE "String Quartet 5 B Op 92 – III. Moderato - Allegretto"
INDEX 01 68:30:34
-CD 2 – 01h18'32"
String Quartet № 6 G-Dur Op 101
01. I. Allegretto [06'46"]
02. II. Moderato con moto [04'59"]
03. III. Lento [05'16"]
04. IV. Lento - Allegretto - Andante [07'42"]
String Quartet № 3 F-Dur Op 73
05. I. Allegretto [06'44"]
06. II. Moderato con moto [05'33"]
07. III. Allegro non troppo [04'13"]
08. IV. Adagio [05'07"]
09. V. Moderato [10'29"]
String Quartet № 13 b-moll Op 138
10. I. Adagio - Doppio movimento - Tempo primo [21'44"]-

CUE

REM GENRE "Classical"
REM DISCID 7B12680A
PERFORMER "Shostakovich"
TITLE "The Complete String Quartets CD 2"
REM DATE 2006
REM DISCNUMBER 2
REM TOTALDISCS 5
FILE "The Complete String Quartets CD 2.ape" WAVE
TRACK 01 AUDIO
PERFORMER "Shostakovich"
TITLE "String Quartet 6 G Op 101 – I. Allegretto"
INDEX 01 00:00:00
TRACK 02 AUDIO
PERFORMER "Shostakovich"
TITLE "String Quartet 6 G Op 101 – II. Moderato con moto"
INDEX 01 06:45:44
TRACK 03 AUDIO
PERFORMER "Shostakovich"
TITLE "String Quartet 6 G Op 101 – III. Lento"
INDEX 01 11:44:16
TRACK 04 AUDIO
PERFORMER "Shostakovich"
TITLE "String Quartet 6 G Op 101 – IV. Lento - Allegretto - Andante"
INDEX 01 17:00:13
TRACK 05 AUDIO
PERFORMER "Shostakovich"
TITLE "String Quartet 3 F Op 73 – I. Allegretto"
INDEX 01 24:42:35
TRACK 06 AUDIO
PERFORMER "Shostakovich"
TITLE "String Quartet 3 F Op 73 – II. Moderato con moto"
INDEX 01 31:26:55
TRACK 07 AUDIO
PERFORMER "Shostakovich"
TITLE "String Quartet 3 F Op 73 – III. Allegro non troppo"
INDEX 01 36:59:26
TRACK 08 AUDIO
PERFORMER "Shostakovich"
TITLE "String Quartet 3 F Op 73 – IV. Adagio"
INDEX 01 41:12:56
TRACK 09 AUDIO
PERFORMER "Shostakovich"
TITLE "String Quartet 3 F Op 73 – V. Moderato"
INDEX 01 46:19:74
TRACK 10 AUDIO
PERFORMER "Shostakovich"
TITLE "String Quartet 13 b Op 138 – I. Adagio - Doppio movimento - Tempo primo"
INDEX 01 56:48:68
-CD 3 – 01h20'03"
String Quartet № 14 Fis-Dur Op 142
01. I. Allegretto [09'02"]
02. II. Adagio [10'37"]
03. III. Allegretto - Poco meno mosso - A tempo - Adagio [08'44"]
String Quartet № 8 с-moll Op 110
04. I. Largo [05'08"]
05. II. Allegro molto [02'46"]
06. III. Allegretto [04'28"]
07. IV. Largo [05'59"]
08. V. Largo [03'54"]
String Quartet № 12 Des-Dur Op 133
09. I. Moderato [07'18"]
10. II. Allegro - Adagio - Moderato - Adagio - Moderato - Allegretto [22'08"]-

CUE

REM GENRE "Classical"
REM DISCID 7C12C30A
PERFORMER "Shostakovich"
TITLE "The Complete String Quartets CD 3"
REM DATE 2006
REM DISCNUMBER 3
REM TOTALDISCS 5
FILE "The Complete String Quartets CD 3.ape" WAVE
TRACK 01 AUDIO
PERFORMER "Shostakovich"
TITLE "String Quartet 14 Fis Op 142 – I. Allegretto"
INDEX 01 00:00:00
TRACK 02 AUDIO
PERFORMER "Shostakovich"
TITLE "String Quartet 14 Fis Op 142 – II. Adagio"
INDEX 01 09:01:73
TRACK 03 AUDIO
PERFORMER "Shostakovich"
TITLE "String Quartet 14 Fis Op 142 – III. Allegretto - Poco meno mosso - A tempo - Adagio"
INDEX 01 19:39:07
TRACK 04 AUDIO
PERFORMER "Shostakovich"
TITLE "String Quartet 8 с Op 110 – I. Largo"
INDEX 01 28:23:15
TRACK 05 AUDIO
PERFORMER "Shostakovich"
TITLE "String Quartet 8 с Op 110 – II. Allegro molto"
INDEX 01 33:31:22
TRACK 06 AUDIO
PERFORMER "Shostakovich"
TITLE "String Quartet 8 с Op 110 – III. Allegretto"
INDEX 01 36:17:51
TRACK 07 AUDIO
PERFORMER "Shostakovich"
TITLE "String Quartet 8 с Op 110 – IV. Largo"
INDEX 01 40:45:30
TRACK 08 AUDIO
PERFORMER "Shostakovich"
TITLE "String Quartet 8 с Op 110 – V. Largo"
INDEX 01 46:44:24
TRACK 09 AUDIO
PERFORMER "Shostakovich"
TITLE "String Quartet 12 Des Op 133 – I. Moderato"
INDEX 01 50:38:00
TRACK 10 AUDIO
PERFORMER "Shostakovich"
TITLE "String Quartet 12 Des Op 133 – II. Allegro - Adagio - Moderato - Adagio - Moderato - Allegretto"
INDEX 01 57:55:60
-CD 4 – 01h10'02"
String Quartet № 4 D-Dur Op 83
01. I. Allegretto [03'44"]
02. II. Andantino [06'30"]
03. III. Allegretto [04'19"]
04. IV. Allegretto [11'01"]
String Quartet № 11 f-moll Op 122
05. I. Introduction: Andantino [02'34"]
06. II. Scherzo: Allegretto [02'50"]
07. III. Recitative: Adagio [01'19"]
08. IV. Etude: Allegro [01'17"]
09. V. Humoresque: Allegro [01'06"]
10. VI. Elegie: Adagio [03'50"]
11. VII. Finale: Moderato [04'04"]
String Quartet № 9 Es-Dur Op 117
12. I. Moderato con moto [04'44"]
13. II. Adagio [04'22"]
14. III. Allegretto [04'14"]
15. IV. Adagio [03'42"]
16. V. Allegro [10'26"]-

CUE

REM GENRE "Classical"
REM DISCID E2106A10
PERFORMER "Shostakovich"
TITLE "The Complete String Quartets CD 4"
REM DATE 2006
REM DISCNUMBER 4
REM TOTALDISCS 5
FILE "The Complete String Quartets CD 4.ape" WAVE
TRACK 01 AUDIO
PERFORMER "Shostakovich"
TITLE "String Quartet 4 D Op 83 – I. Allegretto"
INDEX 01 00:00:00
TRACK 02 AUDIO
PERFORMER "Shostakovich"
TITLE "String Quartet 4 D Op 83 – II. Andantino"
INDEX 01 03:44:34
TRACK 03 AUDIO
PERFORMER "Shostakovich"
TITLE "String Quartet 4 D Op 83 – III. Allegretto"
INDEX 01 10:14:12
TRACK 04 AUDIO
PERFORMER "Shostakovich"
TITLE "String Quartet 4 D Op 83 – IV. Allegretto"
INDEX 01 14:33:10
TRACK 05 AUDIO
PERFORMER "Shostakovich"
TITLE "String Quartet 11 f Op 122 – I. Introduction: Andantino"
INDEX 01 25:34:10
TRACK 06 AUDIO
PERFORMER "Shostakovich"
TITLE "String Quartet 11 f Op 122 – II. Scherzo: Allegretto"
INDEX 01 28:08:10
TRACK 07 AUDIO
PERFORMER "Shostakovich"
TITLE "String Quartet 11 f Op 122 – III. Recitative: Adagio"
INDEX 01 30:58:38
TRACK 08 AUDIO
PERFORMER "Shostakovich"
TITLE "String Quartet 11 f Op 122 – IV. Etude: Allegro"
INDEX 01 32:17:49
TRACK 09 AUDIO
PERFORMER "Shostakovich"
TITLE "String Quartet 11 f Op 122 – V. Humoresque: Allegro"
INDEX 01 33:34:74
TRACK 10 AUDIO
PERFORMER "Shostakovich"
TITLE "String Quartet 11 f Op 122 – VI. Elegie: Adagio"
INDEX 01 34:40:39
TRACK 11 AUDIO
PERFORMER "Shostakovich"
TITLE "String Quartet 11 f Op 122 – VII. Finale: Moderato"
INDEX 01 38:30:22
TRACK 12 AUDIO
PERFORMER "Shostakovich"
TITLE "String Quartet 9 Es Op 117 – I. Moderato con moto"
INDEX 01 42:34:00
TRACK 13 AUDIO
PERFORMER "Shostakovich"
TITLE "String Quartet 9 Es Op 117 – II. Adagio"
INDEX 01 47:17:44
TRACK 14 AUDIO
PERFORMER "Shostakovich"
TITLE "String Quartet 9 Es Op 117 – III. Allegretto"
INDEX 01 51:39:74
TRACK 15 AUDIO
PERFORMER "Shostakovich"
TITLE "String Quartet 9 Es Op 117 – IV. Adagio"
INDEX 01 55:53:50
TRACK 16 AUDIO
PERFORMER "Shostakovich"
TITLE "String Quartet 9 Es Op 117 – V. Allegro"
INDEX 01 59:36:05
-CD 5 – 01h17'47"
String Quartet № 1 C-Dur Op 49
01. I. Moderato [04'54"]
02. II. Moderato [04'57"]
03. III. Allegro molto [02'13"]
04. IV. Allegro [03'19"]
String Quartet № 10 As-Dur Op 118
05. I. Andante [04'39"]
06. II. Allegretto furioso [03'57"]
07. III. Adagio [05'47"]
08. IV. Allegretto [09'25"]
String Quartet № 15 es-moll Op 144
09. I. Elegy: Adagio [13'43"]
10. II. Serenade: Adagio [06'01"]
11. III. Intermezzo: Adagio [01'52"]
12. IV. Nocturne: Adagio [05'04"]
13. V. Funeral March: Adagio molto [05'26"]
14. VI. Epilogue: Adagio - Adagio molto [06'30"]-

CUE

REM GENRE "Classical"
REM DISCID DA123A0E
PERFORMER "Shostakovich"
TITLE "The Complete String Quartets CD 5"
REM DATE 2006
REM DISCNUMBER 5
REM TOTALDISCS 5
FILE "The Complete String Quartets CD 5.ape" WAVE
TRACK 01 AUDIO
PERFORMER "Shostakovich"
TITLE "String Quartet 1 C Op 49 – I. Moderato"
INDEX 01 00:00:00
TRACK 02 AUDIO
PERFORMER "Shostakovich"
TITLE "String Quartet 1 C Op 49 – II. Moderato"
INDEX 01 04:54:27
TRACK 03 AUDIO
PERFORMER "Shostakovich"
TITLE "String Quartet 1 C Op 49 – III. Allegro molto"
INDEX 01 09:51:60
TRACK 04 AUDIO
PERFORMER "Shostakovich"
TITLE "String Quartet 1 C Op 49 – IV. Allegro"
INDEX 01 12:05:08
TRACK 05 AUDIO
PERFORMER "Shostakovich"
TITLE "String Quartet 10 As Op 118 – I. Andante"
INDEX 01 15:24:31
TRACK 06 AUDIO
PERFORMER "Shostakovich"
TITLE "String Quartet 10 As Op 118 – II. Allegretto furioso"
INDEX 01 20:03:09
TRACK 07 AUDIO
PERFORMER "Shostakovich"
TITLE "String Quartet 10 As Op 118 – III. Adagio"
INDEX 01 23:59:55
TRACK 08 AUDIO
PERFORMER "Shostakovich"
TITLE "String Quartet 10 As Op 118 – IV. Allegretto"
INDEX 01 29:46:40
TRACK 09 AUDIO
PERFORMER "Shostakovich"
TITLE "String Quartet 15 es Op 144 – I. Elegy: Adagio"
INDEX 01 39:11:17
TRACK 10 AUDIO
PERFORMER "Shostakovich"
TITLE "String Quartet 15 es Op 144 – II. Serenade: Adagio"
INDEX 01 52:53:57
TRACK 11 AUDIO
PERFORMER "Shostakovich"
TITLE "String Quartet 15 es Op 144 – III. Intermezzo: Adagio"
INDEX 01 58:54:67
TRACK 12 AUDIO
PERFORMER "Shostakovich"
TITLE "String Quartet 15 es Op 144 – IV. Nocturne: Adagio"
INDEX 01 60:46:32
TRACK 13 AUDIO
PERFORMER "Shostakovich"
TITLE "String Quartet 15 es Op 144 – V. Funeral March: Adagio molto"
INDEX 01 65:50:62
TRACK 14 AUDIO
PERFORMER "Shostakovich"
TITLE "String Quartet 15 es Op 144 – VI. Epilogue: Adagio - Adagio molto"
INDEX 01 71:16:32
-
-

auCDtect log

-----------------------
[br]
DON'T MODIFY THIS FILE
[br]
-----------------------
[br]
PERFORMER: auCDtect Task Manager, ver. 1.5.1RC4 build 1.5.1.5
Copyright (c) 2008-2010 y-soft. All rights reserved
http://y-soft.org
[br]
ANALYZER: auCDtect: CD records authenticity detector, version 0.8.2
Copyright (c) 2004 Oleg Berngardt. All rights reserved.
Copyright (c) 2004 Alexander Djourik. All rights reserved.
[br]
FILE: The Complete String Quartets CD 5.wav
Size: 823195340 Hash: CD6B95C080B050B3A2AFA206E27F2CBD Accuracy: -m0
Conclusion: CDDA 100%
Signature: C6868853ED67BA4692DE339B6054E70FCC14FE1B
FILE: The Complete String Quartets CD 4.wav
Size: 741303404 Hash: 7A65E6DABDE37FE6A261F9A7F639EB1C Accuracy: -m0
Conclusion: CDDA 99%
Signature: 084C0934F6A09D2DF7EA5B0DCA7B7A96B57FF3B7
FILE: The Complete String Quartets CD 3.wav
Size: 847319804 Hash: 82E2A85F80F5A9615F3CECAC6D75D057 Accuracy: -m0
Conclusion: CDDA 100%
Signature: FE42EDBED0772897A8905C89F36702A5FD402DC2
FILE: The Complete String Quartets CD 2.wav
Size: 831276812 Hash: B6AF48AE93EED678DAF0B6CF466AEE2B Accuracy: -m0
Conclusion: CDDA 100%
Signature: 4D1433A3A9238CD5071A46037ABF941E8F95D071
FILE: The Complete String Quartets CD 1.wav
Size: 845292380 Hash: ABF166533F10ACC0C2C2E62C705A5267 Accuracy: -m0
Conclusion: CDDA 100%
Signature: CF4CCF99091FBC0BD9C9B6F7F0396AD9090BFD36
-

Spectrogram

-



Показать сообщения:    

Текущее время: 10-Дек 00:23

Часовой пояс: UTC + 3


Вы не можете начинать темы
Вы не можете отвечать на сообщения
Вы не можете редактировать свои сообщения
Вы не можете удалять свои сообщения
Вы не можете голосовать в опросах
Вы не можете прикреплять файлы к сообщениям
Вы не можете скачивать файлы