Василий Ливанов. Я умею держать удар (Светлана Винтер) [04.09.2015, Документальный, TVRip-AVC]


Статистика раздачи [Обновить пиров]
Размер:  411 MB   |    Зарегистрирован:  8 месяцев 20 дней   |    Скачан:  0 раз

Полного источника не было: Никогда

 
   
 
 
 

[Цитировать]

Василий Ливанов. Я умею держать удар
Дата/Год выпуска: 04.09.2015
Страна: Россия
Жанр: Документальный
Продолжительность: 00:44:17
Перевод: Не требуется
Русские субтитры: нет
Режиссер: Светлана Винтер
Телеканал: ТВ Центр
Описание: Василий Ливанов – один из самых популярных российских киноактёров. А ещё он писатель, сценарист, режиссёр, художник. В документальном фильме рассказывается о его необычной творческой судьбе. Вопреки воле родителей Ливанов стал актёром. Со своей женой Еленой, известным художником-мультипликатором, он прожил более 45 лет. Серьёзным испытанием для семьи стала трагедия, случившаяся со старшим сыном Борисом. Сегодня семья вместе. Впервые в фильме об отце говорят сыновья – Николай и Борис, жена Елена и внучка Ева.
Доп. информация: Участники: Елена Ливанова – жена, Николай и Борис Ливановы – сыновья, Никита Михалков, Алла Сурикова, Александр Адабашьян, Тамара Сёмина, Ольга Кабо, Сергей Шакуров, Александр Калягин, Мария Соломина.
качество: TVRip
формат: MP4
Видео: avc1, 704x396, 16:9, 1200 kbps, 25 fps
Аудио: aac, 96 kbps, 48 kHz, 2 ch

MediaInfo

General
Complete name : C:\Users\Àðòóð\Desktop\Âàñèëèé Ëèâàíîâ. ß óìåþ äåðæàòü óäàð.mp4
Format : MPEG-4
Format profile : Base Media / Version 2
Codec ID : mp42
File size : 411 MiB
Duration : 44mn 16s
Overall bit rate : 1 297 Kbps
Encoded date : UTC 2015-07-17 07:02:23
Tagged date : UTC 2015-07-17 07:02:23
Video
ID : 1
Format : AVC
Format/Info : Advanced Video Codec
Format profile : High@L3.0
Format settings, CABAC : Yes
Format settings, ReFrames : 2 frames
Codec ID : avc1
Codec ID/Info : Advanced Video Coding
Duration : 44mn 16s
Bit rate mode : Constant
Bit rate : 1 200 Kbps
Width : 704 pixels
Height : 396 pixels
Display aspect ratio : 16:9
Frame rate mode : Constant
Frame rate : 25.000 fps
Color space : YUV
Chroma subsampling : 4:2:0
Bit depth : 8 bits
Scan type : Progressive
Bits/(Pixel*Frame) : 0.172
Stream size : 380 MiB (92%)
Language : English
Encoded date : UTC 2015-07-17 07:02:23
Tagged date : UTC 2015-07-17 07:02:23
Audio
ID : 2
Format : AAC
Format/Info : Advanced Audio Codec
Format profile : HE-AAC / LC
Codec ID : 40
Duration : 44mn 16s
Bit rate mode : Variable
Bit rate : 96.0 Kbps
Maximum bit rate : 129 Kbps
Channel(s) : 2 channels
Channel positions : Front: L R
Sampling rate : 48.0 KHz / 24.0 KHz
Compression mode : Lossy
Stream size : 30.0 MiB (7%)
Language : Russian
Encoded date : UTC 2015-07-17 07:02:23
Tagged date : UTC 2015-07-17 07:02:23

Скриншоты

[teatrix.ru].t22185.torrent 
Торрент: Зарегистрирован [ 2016-03-20 12:41 ] · 77DB285263115389A87045BC5ED4728C263E515B

Скачать .torrent

Скачать

17 KB

Статус: проверено
Скачан: 0 раз
Размер: 411 MB
terms.php



Быстрый ответ

Имя:

      
Для отправки сообщений необходимо включить JavaScript
Показать сообщения:    

Текущее время: 10-Дек 08:05

Часовой пояс: UTC + 3


Вы можете начинать темы
Вы можете отвечать на сообщения
Вы не можете редактировать свои сообщения
Вы не можете удалять свои сообщения
Вы не можете голосовать в опросах
Вы не можете прикреплять файлы к сообщениям
Вы можете скачивать файлы