(Opera) Мусоргский - Борис Годунов / Mussorgsky - Boris Godunov (Pernet, Armel, Gilly, Claverie - Choer et Orchestre de la Suisse Romande, Ansermet) - 2006, APE (image+.cue) lossless


 

[Цитировать]

Modest Mussorgsky - Boris Godunov
Жанр: Opera
Страна-производитель диска: Germany
Год издания диска: 2006
Издатель (лейбл): Cantus Classics
Номер по каталогу: 5.00777
Дата записи: 1948
Аудиокодек: APE
Тип рипа: image+.cue
Битрейт аудио: lossless
Продолжительность: 78'09+67'36
Источник: собственный рип
Наличие сканов в содержимом раздачи: да
Треклист:

CD1

1. Prologue
2. Dans la cour du couvent de Novodievitchi
3. Choeur des pèlerins
4. Scène du couronnement
5. Act 1: Dans la cellule de Pimen
6. Act 1: Sur la frontière
7. Act 1: Chanson de l'Hôtesse
8. Act 1: Chanson de Varlaam
9. Act 1: Duo de Varlaam et Grigori
10. Act 2: L'intérieur des appartements du tzar
11. Act 2: la chanson du cousin et de la puce
12. Act 2: La nourrice, Xenia, Boris
13. Act 2: Monologue de Boris 'J'ai le pouvoir suprême...'
14. Act 2: Duo Chouisky
15. Act 2: Scène du carillon

CD2

1. Act 3: Choeur des suivantes
2. Act 3: Air de Marina
3. Act 3: Duo Marina
4. Act 3: Scène de la fontaine
5. Act 3: Polonaise avec choeurs
6. Act 3: Duo Marina-Dimitri
7. Act 3: Duo, part 2
8. Act 4: Dans la forêt de Kromy
9. Act 4: Scène de l'Innocent
10. Act 4: La séance de la Douma
11. Act 4: Le récit de Pimen
12. Act 4: Mort de Boris
Исполнители:
Modest Mussorgsky - Boris Godunov
Opera in 1 prolog and 4 Acts
Libretto, by Modest Mussorgsky
Boris - André Pernet, bass
Grigory - Francis Armel, tenor
Marina - Renée Gilly, mezzo-soprano
Pimen - Jean Claverie, bass
Varlaam - Ernest Mestrallet, bariton
Shuisky - René Bonneval, tenor
Missail - René Hérent, tenor
Rangoni - Julien Giovannetti, bariton
Fyodor - Nadine Wolf, mezzo-soprano
Xenia - Julianna Farkas, soprano
Hostess - Lucrece Mistral, mezzo-soprano
Simpleton - Hugues Cuénod, tenor
Choeur et Orchestre de la Suisse Romande
Conductor Ernest Ansermet
1948
Performed in French

Лог создания рипа

CD1

Exact Audio Copy V1.0 beta 6 from 9. April 2015
EAC extraction logfile from 2. September 2015, 19:57
Pernet, Gilly, Armel - Choeur et Orchestre de la Suisse Romande / Mussorgsky - Boris Godunov, Ansermet CD1
Used drive : TSSTcorpCDDVDW SE-208AB Adapter: 1 ID: 2
Read mode : Secure
Utilize accurate stream : Yes
Defeat audio cache : Yes
Make use of C2 pointers : No
Read offset correction : 6
Overread into Lead-In and Lead-Out : No
Fill up missing offset samples with silence : Yes
Delete leading and trailing silent blocks : No
Null samples used in CRC calculations : Yes
Used interface : Native Win32 interface for Win NT & 2000
Used output format : Monkey's Audio Lossless Encoder
Selected bitrate : High Lossless Compression
Quality : High
Add ID3 tag : Yes
Command line compressor : C:\Program Files (x86)\Exact Audio Copy\MAC\MAC.exe
TOC of the extracted CD
Track | Start | Length | Start sector | End sector
---------------------------------------------------------
1 | 0:00.00 | 1:39.28 | 0 | 7452
2 | 1:39.28 | 6:50.06 | 7453 | 38208
3 | 8:29.34 | 3:04.18 | 38209 | 52026
4 | 11:33.52 | 9:32.65 | 52027 | 94991
5 | 21:06.42 | 12:40.73 | 94992 | 152064
6 | 33:47.40 | 1:15.35 | 152065 | 157724
7 | 35:03.00 | 4:27.51 | 157725 | 177800
8 | 39:30.51 | 2:06.04 | 177801 | 187254
9 | 41:36.55 | 10:22.22 | 187255 | 233926
10 | 51:59.02 | 2:54.70 | 233927 | 247046
11 | 54:53.72 | 3:39.05 | 247047 | 263476
12 | 58:33.02 | 3:35.56 | 263477 | 279657
13 | 62:08.58 | 4:45.23 | 279658 | 301055
14 | 66:54.06 | 7:40.35 | 301056 | 335590
15 | 74:34.41 | 3:35.17 | 335591 | 351732
Range status and errors
Selected range
Filename D:\EAC\Mussorgsky - Boris Godunov, Ansermet CD1.wav
Peak level 100.0 %
Extraction speed 5.3 X
Range quality 100.0 %
Test CRC 6CAE8095
Copy CRC 6CAE8095
Copy OK
No errors occurred
AccurateRip summary
Track 1 accurately ripped (confidence 1) [75B956F0] (AR v1)
Track 2 accurately ripped (confidence 1) [F95413FB] (AR v1)
Track 3 accurately ripped (confidence 1) [F9A850BC] (AR v1)
Track 4 accurately ripped (confidence 1) [E4B9A7D3] (AR v1)
Track 5 accurately ripped (confidence 1) [873CB9E3] (AR v1)
Track 6 accurately ripped (confidence 1) [5CB43637] (AR v1)
Track 7 accurately ripped (confidence 1) [233B9881] (AR v1)
Track 8 accurately ripped (confidence 1) [5F31B950] (AR v1)
Track 9 accurately ripped (confidence 1) [F43AFA66] (AR v1)
Track 10 accurately ripped (confidence 1) [D4B96BAD] (AR v1)
Track 11 accurately ripped (confidence 1) [900A8F8B] (AR v1)
Track 12 accurately ripped (confidence 1) [FF5B2568] (AR v1)
Track 13 accurately ripped (confidence 1) [3C4F9366] (AR v1)
Track 14 accurately ripped (confidence 1) [25835F08] (AR v1)
Track 15 accurately ripped (confidence 1) [66EC5659] (AR v1)
All tracks accurately ripped
End of status report
---- CUETools DB Plugin V2.1.6
[CTDB TOCID: ebHKLNBqg3wX20mV.6j.9lldQ5k-] disk not present in database
Submit result: ebHKLNBqg3wX20mV.6j.9lldQ5k- has been uploaded
==== Log checksum 61212625551AD3427A85B3E890BA9400230E43F80A4F48294638C8F375D5EEA5 ====

CD2

Exact Audio Copy V1.0 beta 6 from 9. April 2015
EAC extraction logfile from 2. September 2015, 20:28
Pernet, Gilly, Armel - Choeur et Orchestre de la Suisse Romande / Mussorgsky - Boris Godunov, Ansermet CD2
Used drive : TSSTcorpCDDVDW SE-208AB Adapter: 1 ID: 2
Read mode : Secure
Utilize accurate stream : Yes
Defeat audio cache : Yes
Make use of C2 pointers : No
Read offset correction : 6
Overread into Lead-In and Lead-Out : No
Fill up missing offset samples with silence : Yes
Delete leading and trailing silent blocks : No
Null samples used in CRC calculations : Yes
Used interface : Native Win32 interface for Win NT & 2000
Used output format : Monkey's Audio Lossless Encoder
Selected bitrate : High Lossless Compression
Quality : High
Add ID3 tag : Yes
Command line compressor : C:\Program Files (x86)\Exact Audio Copy\MAC\MAC.exe
TOC of the extracted CD
Track | Start | Length | Start sector | End sector
---------------------------------------------------------
1 | 0:00.00 | 2:25.22 | 0 | 10896
2 | 2:25.22 | 3:29.55 | 10897 | 26626
3 | 5:55.02 | 7:10.11 | 26627 | 58887
4 | 13:05.13 | 2:44.57 | 58888 | 71244
5 | 15:49.70 | 3:27.48 | 71245 | 86817
6 | 19:17.43 | 6:40.47 | 86818 | 116864
7 | 25:58.15 | 3:34.17 | 116865 | 132931
8 | 29:32.32 | 4:01.62 | 132932 | 151068
9 | 33:34.19 | 13:01.14 | 151069 | 209657
10 | 46:35.33 | 7:50.51 | 209658 | 244958
11 | 54:26.09 | 4:04.36 | 244959 | 263294
12 | 58:30.45 | 9:06.05 | 263295 | 304249
Range status and errors
Selected range
Filename D:\EAC\Mussorgsky - Boris Godunov, Ansermet CD2.wav
Peak level 93.2 %
Extraction speed 4.9 X
Range quality 99.9 %
Test CRC 1AE1B3E3
Copy CRC 1AE1B3E3
Copy OK
No errors occurred
AccurateRip summary
Track 1 accurately ripped (confidence 1) [FB96A9B4] (AR v1)
Track 2 accurately ripped (confidence 1) [965F4692] (AR v1)
Track 3 accurately ripped (confidence 1) [053FA67D] (AR v1)
Track 4 accurately ripped (confidence 1) [28A209C2] (AR v1)
Track 5 accurately ripped (confidence 1) [3EC03C55] (AR v1)
Track 6 accurately ripped (confidence 1) [21CA7898] (AR v1)
Track 7 accurately ripped (confidence 1) [3B51D8C3] (AR v1)
Track 8 accurately ripped (confidence 1) [5165F28A] (AR v1)
Track 9 accurately ripped (confidence 1) [E303FE16] (AR v1)
Track 10 accurately ripped (confidence 1) [7F808312] (AR v1)
Track 11 accurately ripped (confidence 1) [FF6A67D1] (AR v1)
Track 12 accurately ripped (confidence 1) [5166E6A1] (AR v1)
All tracks accurately ripped
End of status report
---- CUETools DB Plugin V2.1.6
[CTDB TOCID: NBtqM7JP7QfMHZ.M44S49fTMqB4-] disk not present in database
Submit result: NBtqM7JP7QfMHZ.M44S49fTMqB4- has been uploaded
==== Log checksum 50322B84EC6377ED2550A1F7596A89699B7F36E62FA265CCEFD79FF622B0F5AA ====

Содержание индексной карты (.CUE)

CD1

REM GENRE Opera
REM DATE 1948
REM DISCID BF12510F
REM COMMENT "ExactAudioCopy v1.0b6"
PERFORMER "Pernet, Gilly, Armel - Choeur et Orchestre de la Suisse Romande"
TITLE "Mussorgsky - Boris Godunov, Ansermet CD1"
FILE "Mussorgsky - Boris Godunov, Ansermet CD1.ape" WAVE
TRACK 01 AUDIO
TITLE "Prologue"
PERFORMER "Pernet, Gilly, Armel - Choeur et Orchestre de la Suisse Romande"
INDEX 01 00:00:00
TRACK 02 AUDIO
TITLE "Dans la cour du couvent de Novodievitchi"
PERFORMER "Pernet, Gilly, Armel - Choeur et Orchestre de la Suisse Romande"
INDEX 01 01:39:28
TRACK 03 AUDIO
TITLE "Choeur des pèlerins"
PERFORMER "Pernet, Gilly, Armel - Choeur et Orchestre de la Suisse Romande"
INDEX 01 08:29:34
TRACK 04 AUDIO
TITLE "Scène du couronnement"
PERFORMER "Pernet, Gilly, Armel - Choeur et Orchestre de la Suisse Romande"
INDEX 01 11:33:52
TRACK 05 AUDIO
TITLE "Act 1: Dans la cellule de Pimen"
PERFORMER "Pernet, Gilly, Armel - Choeur et Orchestre de la Suisse Romande"
INDEX 01 21:06:42
TRACK 06 AUDIO
TITLE "Act 1: Sur la frontière"
PERFORMER "Pernet, Gilly, Armel - Choeur et Orchestre de la Suisse Romande"
INDEX 01 33:47:40
TRACK 07 AUDIO
TITLE "Act 1: Chanson de l'Hôtesse"
PERFORMER "Pernet, Gilly, Armel - Choeur et Orchestre de la Suisse Romande"
INDEX 01 35:03:00
TRACK 08 AUDIO
TITLE "Act 1: Chanson de Varlaam"
PERFORMER "Pernet, Gilly, Armel - Choeur et Orchestre de la Suisse Romande"
INDEX 01 39:30:51
TRACK 09 AUDIO
TITLE "Act 1: Duo de Varlaam et Grigori"
PERFORMER "Pernet, Gilly, Armel - Choeur et Orchestre de la Suisse Romande"
INDEX 01 41:36:55
TRACK 10 AUDIO
TITLE "Act 2: L'intérieur des appartements du tzar"
PERFORMER "Pernet, Gilly, Armel - Choeur et Orchestre de la Suisse Romande"
INDEX 01 51:59:02
TRACK 11 AUDIO
TITLE "Act 2: la chanson du cousin et de la puce"
PERFORMER "Pernet, Gilly, Armel - Choeur et Orchestre de la Suisse Romande"
INDEX 01 54:53:72
TRACK 12 AUDIO
TITLE "Act 2: La nourrice, Xenia, Boris"
PERFORMER "Pernet, Gilly, Armel - Choeur et Orchestre de la Suisse Romande"
INDEX 01 58:33:02
TRACK 13 AUDIO
TITLE "Act 2: Monologue de Boris 'J'ai le pouvoir suprême...'"
PERFORMER "Pernet, Gilly, Armel - Choeur et Orchestre de la Suisse Romande"
INDEX 01 62:08:58
TRACK 14 AUDIO
TITLE "Act 2: Duo Chouisky"
PERFORMER "Pernet, Gilly, Armel - Choeur et Orchestre de la Suisse Romande"
INDEX 01 66:54:06
TRACK 15 AUDIO
TITLE "Act 2: Scène du carillon"
PERFORMER "Pernet, Gilly, Armel - Choeur et Orchestre de la Suisse Romande"
INDEX 01 74:34:41

CD2

REM GENRE Opera
REM DATE 1948
REM DISCID B10FD80C
REM COMMENT "ExactAudioCopy v1.0b6"
PERFORMER "Pernet, Gilly, Armel - Choeur et Orchestre de la Suisse Romande"
TITLE "Mussorgsky - Boris Godunov, Ansermet CD2"
FILE "Mussorgsky - Boris Godunov, Ansermet CD2.ape" WAVE
TRACK 01 AUDIO
TITLE "Act 3: Choeur des suivantes"
PERFORMER "Pernet, Gilly, Armel - Choeur et Orchestre de la Suisse Romande"
INDEX 01 00:00:00
TRACK 02 AUDIO
TITLE "Act 3: Air de Marina"
PERFORMER "Pernet, Gilly, Armel - Choeur et Orchestre de la Suisse Romande"
INDEX 01 02:25:22
TRACK 03 AUDIO
TITLE "Act 3: Duo Marina"
PERFORMER "Pernet, Gilly, Armel - Choeur et Orchestre de la Suisse Romande"
INDEX 01 05:55:02
TRACK 04 AUDIO
TITLE "Act 3: Scène de la fontaine"
PERFORMER "Pernet, Gilly, Armel - Choeur et Orchestre de la Suisse Romande"
INDEX 01 13:05:13
TRACK 05 AUDIO
TITLE "Act 3: Polonaise avec choeurs"
PERFORMER "Pernet, Gilly, Armel - Choeur et Orchestre de la Suisse Romande"
INDEX 01 15:49:70
TRACK 06 AUDIO
TITLE "Act 3: Duo Marina-Dimitri"
PERFORMER "Pernet, Gilly, Armel - Choeur et Orchestre de la Suisse Romande"
INDEX 01 19:17:43
TRACK 07 AUDIO
TITLE "Act 3: Duo, part 2"
PERFORMER "Pernet, Gilly, Armel - Choeur et Orchestre de la Suisse Romande"
INDEX 01 25:58:15
TRACK 08 AUDIO
TITLE "Act 4: Dans la forêt de Kromy"
PERFORMER "Pernet, Gilly, Armel - Choeur et Orchestre de la Suisse Romande"
INDEX 01 29:32:32
TRACK 09 AUDIO
TITLE "Act 4: Scène de l'Innocent"
PERFORMER "Pernet, Gilly, Armel - Choeur et Orchestre de la Suisse Romande"
INDEX 01 33:34:19
TRACK 10 AUDIO
TITLE "Act 4: La séance de la Douma"
PERFORMER "Pernet, Gilly, Armel - Choeur et Orchestre de la Suisse Romande"
INDEX 01 46:35:33
TRACK 11 AUDIO
TITLE "Act 4: Le récit de Pimen"
PERFORMER "Pernet, Gilly, Armel - Choeur et Orchestre de la Suisse Romande"
INDEX 01 54:26:09
TRACK 12 AUDIO
TITLE "Act 4: Mort de Boris"
PERFORMER "Pernet, Gilly, Armel - Choeur et Orchestre de la Suisse Romande"
INDEX 01 58:30:45



Показать сообщения:    

Текущее время: 05-Дек 01:22

Часовой пояс: UTC + 3


Вы не можете начинать темы
Вы не можете отвечать на сообщения
Вы не можете редактировать свои сообщения
Вы не можете удалять свои сообщения
Вы не можете голосовать в опросах
Вы не можете прикреплять файлы к сообщениям
Вы не можете скачивать файлы