(Classical) Franz Danzi - Wind Quintets, Vol.3 (Opp.68, 54) - Berlin Philharmonic Wind Quintet, Love Derwinger - 1995, FLAC (image+.cue) lossless


 

[Цитировать]

Franz Danzi - Wind Quintets, Vol.3 (Opp.68, 54) - Berlin Philharmonic Wind Quintet, Love Derwinger
Жанр: Classical
Страна-производитель диска: Sweden
Год издания диска: 1995
Издатель (лейбл): BIS
Номер по каталогу: BIS-CD-592
Дата записи: 1991, 1992
Аудиокодек: FLAC
Тип рипа: image+.cue
Битрейт аудио: lossless
Продолжительность: 77:33
Источник: собственный рип
Наличие сканов в содержимом раздачи: да
Треклист:
Franz Danzi (1763-1826)
[1]-[4] Wind Quintet in A major, Op.68 No.1
[5]-[8] Wind Quintet in F major, Op.68 No.2
[9]-[12] Wind Quintet in D minor, Op.68 No.3
[13]-[15] Quintet in D major, Op.54
for Piano, Flute, Oboe, Clarinet and Bassoon
Исполнители:
Berlin Philharmonic Wind Quintet
Michael Hasel flute
Andreas Wittmann oboe
Walter Seyfarth clarinet
Fergus McWilliam horn
Henning Trog bassoon
Love Derwinger piano

Лог создания рипа

Exact Audio Copy V1.0 beta 3 from 29. August 2011
EAC extraction logfile from 7. February 2015, 17:43
Berin Philharmonic Wind Quintet / Danzi - Wind Quintets, Vol.3
Used drive : HL-DT-STDVDRAM GU70N Adapter: 0 ID: 0
Read mode : Secure
Utilize accurate stream : Yes
Defeat audio cache : Yes
Make use of C2 pointers : No
Read offset correction : 48
Overread into Lead-In and Lead-Out : No
Fill up missing offset samples with silence : Yes
Delete leading and trailing silent blocks : No
Null samples used in CRC calculations : Yes
Used interface : Native Win32 interface for Win NT & 2000
Used output format : User Defined Encoder
Selected bitrate : 128 kBit/s
Quality : High
Add ID3 tag : No
Command line compressor : C:\Program Files (x86)\Exact Audio Copy\Flac\flac.exe
Additional command line options : -V -8 -T "Date=%year%" -T "Genre=%genre%" %source%
TOC of the extracted CD
Track | Start | Length | Start sector | End sector
---------------------------------------------------------
1 | 0:00.00 | 5:19.00 | 0 | 23924
2 | 5:19.00 | 2:57.00 | 23925 | 37199
3 | 8:16.00 | 3:22.00 | 37200 | 52349
4 | 11:38.00 | 4:27.00 | 52350 | 72374
5 | 16:05.00 | 6:32.00 | 72375 | 101774
6 | 22:37.00 | 5:15.00 | 101775 | 125399
7 | 27:52.00 | 3:17.00 | 125400 | 140174
8 | 31:09.00 | 5:58.00 | 140175 | 167024
9 | 37:07.00 | 6:31.00 | 167025 | 196349
10 | 43:38.00 | 4:08.00 | 196350 | 214949
11 | 47:46.00 | 4:10.00 | 214950 | 233699
12 | 51:56.00 | 3:34.00 | 233700 | 249749
13 | 55:30.00 | 6:42.00 | 249750 | 279899
14 | 62:12.00 | 9:09.00 | 279900 | 321074
15 | 71:21.00 | 5:51.00 | 321075 | 347399
Range status and errors
Selected range
Filename C:\temp\BIS-CD-0592 - Danzi - Wind Quintets, Vol.3\Danzi - Wind Quintets, Vol.3.wav
Peak level 67.1 %
Extraction speed 2.3 X
Range quality 100.0 %
Test CRC 327B979D
Copy CRC 327B979D
Copy OK
No errors occurred
AccurateRip summary
Track 1 accurately ripped (confidence 1) [AB6113E6] (AR v2)
Track 2 accurately ripped (confidence 1) [A450B7DF] (AR v2)
Track 3 accurately ripped (confidence 1) [D391A7D0] (AR v2)
Track 4 accurately ripped (confidence 1) [B911066B] (AR v2)
Track 5 accurately ripped (confidence 1) [90B0C9B6] (AR v2)
Track 6 accurately ripped (confidence 1) [F2949757] (AR v2)
Track 7 accurately ripped (confidence 1) [B57EDC63] (AR v2)
Track 8 accurately ripped (confidence 1) [DB74D48B] (AR v2)
Track 9 accurately ripped (confidence 1) [5C3818E8] (AR v2)
Track 10 accurately ripped (confidence 1) [3C1C3737] (AR v2)
Track 11 accurately ripped (confidence 1) [C30CB548] (AR v2)
Track 12 accurately ripped (confidence 1) [1C29A941] (AR v2)
Track 13 accurately ripped (confidence 1) [FE24527A] (AR v2)
Track 14 accurately ripped (confidence 1) [6A1E0C52] (AR v2)
Track 15 accurately ripped (confidence 1) [962D03D7] (AR v2)
All tracks accurately ripped
End of status report
==== Log checksum 9A3AD23BCDD5D8E4A2B6FCCA14F68D4560828A623B75945ED0637D06CF2A602C ====



Показать сообщения:    

Текущее время: 04-Дек 00:53

Часовой пояс: UTC + 3


Вы не можете начинать темы
Вы не можете отвечать на сообщения
Вы не можете редактировать свои сообщения
Вы не можете удалять свои сообщения
Вы не можете голосовать в опросах
Вы не можете прикреплять файлы к сообщениям
Вы не можете скачивать файлы