Сева. Сева Новгородцев. Город Лондон. Би-би-си [04.09.2015, Документальный фильм, DVB]


Статистика раздачи [Обновить пиров]
Размер:  383 MB   |    Зарегистрирован:  8 месяцев 22 дня   |    Скачан:  0 раз

Полного источника не было: Никогда

 
   
 
 
 

[Цитировать]

Сева. Сева Новгородцев. Город Лондон. Би-би-си
Дата/Год выпуска: 04.09.2015
Страна: Великобритания
Жанр: Документальный фильм
Продолжительность: 00:17:45
Перевод: Не требуется
Телеканал: BBC
Описание: Фильм о легендарном музыканте и радиоведущем Севе Новгородцеве,который сегодня ушел на пенсию.
Сэмпл: http://sendfile.su/1151694
качество: DVB
формат: MPG
Видео: MPEG-2 720x576 2 758 Кбит/сек 16:9 25.000 fps
Аудио: MP2 2 channels 48.0 KHz 192 Кбит/сек

MediaInfo

Novgorodtsev.mpg
Format : MPEG-PS
File size : 383 MiB
Duration : 17mn 46s
Overall bit rate mode : Variable
Overall bit rate : 3 010 Kbps
Video
ID : 224 (0xE0)
Format : MPEG Video
Format version : Version 2
Format profile : Main@Main
Format settings, BVOP : Yes
Format settings, Matrix : Custom
Format settings, GOP : Variable
Format settings, picture st : Frame
Duration : 17mn 45s
Bit rate mode : Variable
Bit rate : 2 758 Kbps
Maximum bit rate : 15.0 Mbps
Width : 720 pixels
Height : 576 pixels
Display aspect ratio : 16:9
Frame rate : 25.000 fps
Standard : PAL
Color space : YUV
Chroma subsampling : 4:2:0
Bit depth : 8 bits
Scan type : Interlaced
Scan order : Top Field First
Compression mode : Lossy
Bits/(Pixel*Frame) : 0.266
Stream size : 351 MiB (92%)
Audio
ID : 192 (0xC0)
Format : MPEG Audio
Format version : Version 1
Format profile : Layer 2
Duration : 17mn 46s
Bit rate mode : Constant
Bit rate : 192 Kbps
Channel(s) : 2 channels
Sampling rate : 48.0 KHz
Compression mode : Lossy
Delay relative to video : -180ms
Stream size : 24.4 MiB (6%)

Скриншоты

[teatrix.ru].t22191.torrent 
Торрент: Зарегистрирован [ 2016-03-20 12:41 ] · AB19EA98D668A3807136155EEDE2DA1372C3FE64

Скачать .torrent

Скачать

30 KB

Статус: проверено
Скачан: 0 раз
Размер: 383 MB
terms.php



Быстрый ответ

Имя:

      
Для отправки сообщений необходимо включить JavaScript
Показать сообщения:    

Текущее время: 11-Дек 12:57

Часовой пояс: UTC + 3


Вы можете начинать темы
Вы можете отвечать на сообщения
Вы не можете редактировать свои сообщения
Вы не можете удалять свои сообщения
Вы не можете голосовать в опросах
Вы не можете прикреплять файлы к сообщениям
Вы можете скачивать файлы