(Opera) Gaetano Donizetti - Anna Bolena / Гаэтано Доницетти - Анна Болейн [First complete recording] (Tiziano Severini; Dimitra Theodossiou, Andrea Papi, Sonia Ganassi, Fabio Sartori), 2000 - live from Teatro di Bergamo, FLAC (tracks+.cue), lossless


 

[Цитировать]

Gaetano Donizetti - Anna Bolena / Гаэтано Доницетти - Анна Болейн (Tiziano Severini; Dimitra Theodossiou, Andrea Papi, Sonia Ganassi, Fabio Sartori)
Жанр: Opera
Страна-производитель диска: Италия
Год издания диска: 2001
Издатель (лейбл): Dynamic
Дата записи: 2000
Аудиокодек: FLAC
Тип рипа: tracks+.cue
Битрейт аудио: lossless
Продолжительность: 198:12
Источник: релизер (Guillermo)
Исполнители:
Anna Bolena - Dimitra Theodossiou,
Enrico - Andrea Papi,
Giovanna - Sonia Ganassi,
Percy - Fabio Sartori,
Rochefort - Paolo Battaglia,
Smeton - Sonia Prina,
Hervey - Cristiano Olivieri.
Conductor - Tiziano Severini,
Orchestra of I Pommeriggi Musicali di Milano,
Coro del Circuito Regionale.
Recorded live at the Teatro Donizetti di Bergamo, October, 2000.

Лог создания рипаЛог создания рипа CD 1

Exact Audio Copy V1.0 beta 3 from 29. August 2011
EAC extraction logfile from 27. August 2015, 8:25
Artista desconocido / Título desconocido
Used drive : HL-DT-STDVDRAM GH24NSC0 Adapter: 3 ID: 0
Read mode : Secure
Utilize accurate stream : Yes
Defeat audio cache : Yes
Make use of C2 pointers : No
Read offset correction : 6
Overread into Lead-In and Lead-Out : No
Fill up missing offset samples with silence : Yes
Delete leading and trailing silent blocks : No
Null samples used in CRC calculations : Yes
Used interface : Native Win32 interface for Win NT & 2000
Gap handling : Appended to previous track
Used output format : User Defined Encoder
Selected bitrate : 768 kBit/s
Quality : High
Add ID3 tag : No
Command line compressor : C:\Program Files (x86)\Exact Audio Copy\FLAC\FLAC.EXE
Additional command line options : -8 -V -T "ARTIST=%artist%" -T "TITLE=%title%" -T "ALBUM=%albumtitle%" -T "DATE=%year%" -T "TRACKNUMBER=%tracknr%" -T "GENRE=%genre%" -T "PERFORMER=%albuminterpret%" -T "COMPOSER=%composer%" %haslyrics%--tag-from-file=LYRICS="%lyricsfile%"%haslyrics% -T "ALBUMARTIST=%albumartist%" -T "DISCNUMBER=%cdnumber%" -T "TOTALDISCS=%totalcds%" -T "TOTALTRACKS=%numtracks%" -T "COMMENT=%comment%" %source% -o %dest%
TOC of the extracted CD
Track | Start | Length | Start sector | End sector
---------------------------------------------------------
1 | 0:00.00 | 7:31.17 | 0 | 33841
2 | 7:31.17 | 2:55.60 | 33842 | 47026
3 | 10:27.02 | 2:23.45 | 47027 | 57796
4 | 12:50.47 | 2:27.05 | 57797 | 68826
5 | 15:17.52 | 2:55.40 | 68827 | 81991
6 | 18:13.17 | 3:41.15 | 81992 | 98581
7 | 21:54.32 | 5:20.68 | 98582 | 122649
8 | 27:15.25 | 5:34.42 | 122650 | 147741
9 | 32:49.67 | 7:00.55 | 147742 | 179296
10 | 39:50.47 | 4:24.05 | 179297 | 199101
11 | 44:14.52 | 3:10.03 | 199102 | 213354
12 | 47:24.55 | 3:20.17 | 213355 | 228371
13 | 50:44.72 | 3:50.35 | 228372 | 245656
14 | 54:35.32 | 2:35.15 | 245657 | 257296
15 | 57:10.47 | 4:24.65 | 257297 | 277161
16 | 61:35.37 | 1:27.05 | 277162 | 283691
17 | 63:02.42 | 2:47.58 | 283692 | 296274
Track 1
Filename f:\Users\Guillermo\Desktop\EAC convertidos\01 Pista01.wav
Pre-gap length 0:00:02.00
Peak level 96.0 %
Extraction speed 1.6 X
Track quality 99.9 %
Test CRC AD698159
Copy CRC AD698159
Copy OK
Track 2
Filename f:\Users\Guillermo\Desktop\EAC convertidos\02 Pista02.wav
Peak level 38.4 %
Extraction speed 1.7 X
Track quality 100.0 %
Test CRC 0A6DC913
Copy CRC 0A6DC913
Copy OK
Track 3
Filename f:\Users\Guillermo\Desktop\EAC convertidos\03 Pista03.wav
Peak level 72.4 %
Extraction speed 1.7 X
Track quality 100.0 %
Test CRC EA9C3E3A
Copy CRC EA9C3E3A
Copy OK
Track 4
Filename f:\Users\Guillermo\Desktop\EAC convertidos\04 Pista04.wav
Peak level 73.6 %
Extraction speed 1.8 X
Track quality 100.0 %
Test CRC 7073B220
Copy CRC 7073B220
Copy OK
Track 5
Filename f:\Users\Guillermo\Desktop\EAC convertidos\05 Pista05.wav
Peak level 72.5 %
Extraction speed 2.0 X
Track quality 100.0 %
Test CRC 9FE45793
Copy CRC 9FE45793
Copy OK
Track 6
Filename f:\Users\Guillermo\Desktop\EAC convertidos\06 Pista06.wav
Peak level 82.3 %
Extraction speed 2.2 X
Track quality 100.0 %
Test CRC 70A6BA48
Copy CRC 70A6BA48
Copy OK
Track 7
Filename f:\Users\Guillermo\Desktop\EAC convertidos\07 Pista07.wav
Peak level 92.7 %
Extraction speed 2.1 X
Track quality 99.9 %
Test CRC BD8DDC1A
Copy CRC BD8DDC1A
Copy OK
Track 8
Filename f:\Users\Guillermo\Desktop\EAC convertidos\08 Pista08.wav
Peak level 98.5 %
Extraction speed 2.6 X
Track quality 100.0 %
Test CRC EC342B44
Copy CRC EC342B44
Copy OK
Track 9
Filename f:\Users\Guillermo\Desktop\EAC convertidos\09 Pista09.wav
Peak level 88.8 %
Extraction speed 2.9 X
Track quality 100.0 %
Test CRC 7CCC80C0
Copy CRC 7CCC80C0
Copy OK
Track 10
Filename f:\Users\Guillermo\Desktop\EAC convertidos\10 Pista10.wav
Peak level 91.8 %
Extraction speed 2.8 X
Track quality 100.0 %
Test CRC 1F251528
Copy CRC 1F251528
Copy OK
Track 11
Filename f:\Users\Guillermo\Desktop\EAC convertidos\11 Pista11.wav
Peak level 95.9 %
Extraction speed 2.7 X
Track quality 100.0 %
Test CRC F435D09E
Copy CRC F435D09E
Copy OK
Track 12
Filename f:\Users\Guillermo\Desktop\EAC convertidos\12 Pista12.wav
Peak level 93.0 %
Extraction speed 2.8 X
Track quality 100.0 %
Test CRC 3E9ACCFF
Copy CRC 3E9ACCFF
Copy OK
Track 13
Filename f:\Users\Guillermo\Desktop\EAC convertidos\13 Pista13.wav
Peak level 97.2 %
Extraction speed 2.9 X
Track quality 100.0 %
Test CRC 6C23A9D2
Copy CRC 6C23A9D2
Copy OK
Track 14
Filename f:\Users\Guillermo\Desktop\EAC convertidos\14 Pista14.wav
Peak level 64.6 %
Extraction speed 2.2 X
Track quality 99.8 %
Test CRC 6205E858
Copy CRC 6205E858
Copy OK
Track 15
Filename f:\Users\Guillermo\Desktop\EAC convertidos\15 Pista15.wav
Peak level 88.1 %
Extraction speed 3.2 X
Track quality 100.0 %
Test CRC 96471145
Copy CRC 96471145
Copy OK
Track 16
Filename f:\Users\Guillermo\Desktop\EAC convertidos\16 Pista16.wav
Peak level 81.3 %
Extraction speed 2.4 X
Track quality 100.0 %
Test CRC B084C983
Copy CRC B084C983
Copy OK
Track 17
Filename f:\Users\Guillermo\Desktop\EAC convertidos\17 Pista17.wav
Peak level 93.0 %
Extraction speed 3.0 X
Track quality 100.0 %
Test CRC 5DE8973F
Copy CRC 5DE8973F
Copy OK
No errors occurred
End of status report
==== Log checksum 56FFAA69D821450AE263B953A3B774A79A6FBA5E304D7C43CEDFAD085C121245 ====

Лог создания рипа CD 2

Exact Audio Copy V1.0 beta 3 from 29. August 2011
EAC extraction logfile from 27. August 2015, 13:03
Artista desconocido / Título desconocido
Used drive : HL-DT-STDVDRAM GH24NSC0 Adapter: 3 ID: 0
Read mode : Secure
Utilize accurate stream : Yes
Defeat audio cache : Yes
Make use of C2 pointers : No
Read offset correction : 6
Overread into Lead-In and Lead-Out : No
Fill up missing offset samples with silence : Yes
Delete leading and trailing silent blocks : No
Null samples used in CRC calculations : Yes
Used interface : Native Win32 interface for Win NT & 2000
Gap handling : Appended to previous track
Used output format : User Defined Encoder
Selected bitrate : 768 kBit/s
Quality : High
Add ID3 tag : No
Command line compressor : C:\Program Files (x86)\Exact Audio Copy\FLAC\FLAC.EXE
Additional command line options : -8 -V -T "ARTIST=%artist%" -T "TITLE=%title%" -T "ALBUM=%albumtitle%" -T "DATE=%year%" -T "TRACKNUMBER=%tracknr%" -T "GENRE=%genre%" -T "PERFORMER=%albuminterpret%" -T "COMPOSER=%composer%" %haslyrics%--tag-from-file=LYRICS="%lyricsfile%"%haslyrics% -T "ALBUMARTIST=%albumartist%" -T "DISCNUMBER=%cdnumber%" -T "TOTALDISCS=%totalcds%" -T "TOTALTRACKS=%numtracks%" -T "COMMENT=%comment%" %source% -o %dest%
TOC of the extracted CD
Track | Start | Length | Start sector | End sector
---------------------------------------------------------
1 | 0:00.00 | 3:39.12 | 0 | 16436
2 | 3:39.12 | 3:59.43 | 16437 | 34404
3 | 7:38.55 | 5:29.30 | 34405 | 59109
4 | 13:08.10 | 7:23.17 | 59110 | 92351
5 | 20:31.27 | 1:45.40 | 92352 | 100266
6 | 22:16.67 | 2:15.45 | 100267 | 110436
7 | 24:32.37 | 4:19.48 | 110437 | 129909
8 | 28:52.10 | 1:19.40 | 129910 | 135874
9 | 30:11.50 | 3:43.20 | 135875 | 152619
10 | 33:54.70 | 7:02.42 | 152620 | 184311
11 | 40:57.37 | 7:03.28 | 184312 | 216064
12 | 48:00.65 | 3:15.52 | 216065 | 230741
13 | 51:16.42 | 2:58.03 | 230742 | 244094
14 | 54:14.45 | 3:48.03 | 244095 | 261197
Track 1
Filename f:\Users\Guillermo\Desktop\EAC convertidos\01 Pista01.wav
Pre-gap length 0:00:02.00
Peak level 62.8 %
Extraction speed 1.5 X
Track quality 100.0 %
Test CRC 4937ABD4
Copy CRC 4937ABD4
Copy OK
Track 2
Filename f:\Users\Guillermo\Desktop\EAC convertidos\02 Pista02.wav
Peak level 98.8 %
Extraction speed 1.7 X
Track quality 100.0 %
Test CRC 67928752
Copy CRC 67928752
Copy OK
Track 3
Filename f:\Users\Guillermo\Desktop\EAC convertidos\03 Pista03.wav
Peak level 94.1 %
Extraction speed 2.0 X
Track quality 100.0 %
Test CRC 687D1944
Copy CRC 687D1944
Copy OK
Track 4
Filename f:\Users\Guillermo\Desktop\EAC convertidos\04 Pista04.wav
Peak level 93.4 %
Extraction speed 2.3 X
Track quality 100.0 %
Test CRC 19020F53
Copy CRC 19020F53
Copy OK
Track 5
Filename f:\Users\Guillermo\Desktop\EAC convertidos\05 Pista05.wav
Peak level 90.4 %
Extraction speed 1.8 X
Track quality 100.0 %
Test CRC 99322279
Copy CRC 99322279
Copy OK
Track 6
Filename f:\Users\Guillermo\Desktop\EAC convertidos\06 Pista06.wav
Peak level 83.1 %
Extraction speed 2.0 X
Track quality 100.0 %
Test CRC CB96F810
Copy CRC CB96F810
Copy OK
Track 7
Filename f:\Users\Guillermo\Desktop\EAC convertidos\07 Pista07.wav
Peak level 74.6 %
Extraction speed 2.4 X
Track quality 100.0 %
Test CRC 3476553B
Copy CRC 3476553B
Copy OK
Track 8
Filename f:\Users\Guillermo\Desktop\EAC convertidos\08 Pista08.wav
Peak level 78.5 %
Extraction speed 1.7 X
Track quality 100.0 %
Test CRC 6419892E
Copy CRC 6419892E
Copy OK
Track 9
Filename f:\Users\Guillermo\Desktop\EAC convertidos\09 Pista09.wav
Peak level 98.2 %
Extraction speed 2.5 X
Track quality 100.0 %
Test CRC 25C5D970
Copy CRC 25C5D970
Copy OK
Track 10
Filename f:\Users\Guillermo\Desktop\EAC convertidos\10 Pista10.wav
Peak level 89.4 %
Extraction speed 2.6 X
Track quality 99.9 %
Test CRC 1DD01FF6
Copy CRC 1DD01FF6
Copy OK
Track 11
Filename f:\Users\Guillermo\Desktop\EAC convertidos\11 Pista11.wav
Peak level 78.9 %
Extraction speed 3.1 X
Track quality 100.0 %
Test CRC ADFBE2B3
Copy CRC ADFBE2B3
Copy OK
Track 12
Filename f:\Users\Guillermo\Desktop\EAC convertidos\12 Pista12.wav
Peak level 83.4 %
Extraction speed 2.8 X
Track quality 100.0 %
Test CRC A6CBE084
Copy CRC A6CBE084
Copy OK
Track 13
Filename f:\Users\Guillermo\Desktop\EAC convertidos\13 Pista13.wav
Peak level 95.5 %
Extraction speed 2.8 X
Track quality 100.0 %
Test CRC FF5E9342
Copy CRC FF5E9342
Copy OK
Track 14
Filename f:\Users\Guillermo\Desktop\EAC convertidos\14 Pista14.wav
Peak level 89.1 %
Extraction speed 3.0 X
Track quality 100.0 %
Test CRC 312C8F48
Copy CRC 312C8F48
Copy OK
No errors occurred
End of status report
==== Log checksum 1417987830E6E431792D5B02AD764AE5FBE9CFF20D9CB8BA5D7498DCB892B040 ====

Лог создания рипа CD 3

Exact Audio Copy V1.0 beta 3 from 29. August 2011
EAC extraction logfile from 27. August 2015, 15:13
Artista desconocido / Título desconocido
Used drive : HL-DT-STDVDRAM GH24NSC0 Adapter: 3 ID: 0
Read mode : Secure
Utilize accurate stream : Yes
Defeat audio cache : Yes
Make use of C2 pointers : No
Read offset correction : 6
Overread into Lead-In and Lead-Out : No
Fill up missing offset samples with silence : Yes
Delete leading and trailing silent blocks : No
Null samples used in CRC calculations : Yes
Used interface : Native Win32 interface for Win NT & 2000
Gap handling : Appended to previous track
Used output format : User Defined Encoder
Selected bitrate : 768 kBit/s
Quality : High
Add ID3 tag : No
Command line compressor : C:\Program Files (x86)\Exact Audio Copy\FLAC\FLAC.EXE
Additional command line options : -8 -V -T "ARTIST=%artist%" -T "TITLE=%title%" -T "ALBUM=%albumtitle%" -T "DATE=%year%" -T "TRACKNUMBER=%tracknr%" -T "GENRE=%genre%" -T "PERFORMER=%albuminterpret%" -T "COMPOSER=%composer%" %haslyrics%--tag-from-file=LYRICS="%lyricsfile%"%haslyrics% -T "ALBUMARTIST=%albumartist%" -T "DISCNUMBER=%cdnumber%" -T "TOTALDISCS=%totalcds%" -T "TOTALTRACKS=%numtracks%" -T "COMMENT=%comment%" %source% -o %dest%
TOC of the extracted CD
Track | Start | Length | Start sector | End sector
---------------------------------------------------------
1 | 0:00.00 | 4:17.02 | 0 | 19276
2 | 4:17.02 | 5:07.70 | 19277 | 42371
3 | 9:24.72 | 7:21.48 | 42372 | 75494
4 | 16:46.45 | 3:34.02 | 75495 | 91546
5 | 20:20.47 | 4:33.53 | 91547 | 112074
6 | 24:54.25 | 3:45.02 | 112075 | 128951
7 | 28:39.27 | 2:29.70 | 128952 | 140196
8 | 31:09.22 | 4:04.08 | 140197 | 158504
9 | 35:13.30 | 1:56.30 | 158505 | 167234
10 | 37:09.60 | 3:24.60 | 167235 | 182594
11 | 40:34.45 | 3:27.42 | 182595 | 198161
12 | 44:02.12 | 6:49.43 | 198162 | 228879
13 | 50:51.55 | 5:21.45 | 228880 | 252999
14 | 56:13.25 | 5:52.35 | 253000 | 279434
15 | 62:05.60 | 4:26.22 | 279435 | 299406
16 | 66:32.07 | 2:19.43 | 299407 | 309874
17 | 68:51.50 | 2:11.40 | 309875 | 319739
18 | 71:03.15 | 3:37.63 | 319740 | 336077
Track 1
Filename f:\Users\Guillermo\Desktop\EAC convertidos\01 Pista01.wav
Pre-gap length 0:00:02.00
Peak level 72.3 %
Extraction speed 1.6 X
Track quality 100.0 %
Test CRC 827CBF2B
Copy CRC 827CBF2B
Copy OK
Track 2
Filename f:\Users\Guillermo\Desktop\EAC convertidos\02 Pista02.wav
Peak level 95.0 %
Extraction speed 1.8 X
Track quality 100.0 %
Test CRC AA656A85
Copy CRC AA656A85
Copy OK
Track 3
Filename f:\Users\Guillermo\Desktop\EAC convertidos\03 Pista03.wav
Peak level 91.7 %
Extraction speed 2.0 X
Track quality 99.9 %
Test CRC 461AFC9A
Copy CRC 461AFC9A
Copy OK
Track 4
Filename f:\Users\Guillermo\Desktop\EAC convertidos\04 Pista04.wav
Peak level 87.0 %
Extraction speed 2.1 X
Track quality 100.0 %
Test CRC FF4DF515
Copy CRC FF4DF515
Copy OK
Track 5
Filename f:\Users\Guillermo\Desktop\EAC convertidos\05 Pista05.wav
Peak level 67.0 %
Extraction speed 2.3 X
Track quality 100.0 %
Test CRC 981E84E4
Copy CRC 981E84E4
Copy OK
Track 6
Filename f:\Users\Guillermo\Desktop\EAC convertidos\06 Pista06.wav
Peak level 96.3 %
Extraction speed 2.3 X
Track quality 100.0 %
Test CRC F76CA3FA
Copy CRC F76CA3FA
Copy OK
Track 7
Filename f:\Users\Guillermo\Desktop\EAC convertidos\07 Pista07.wav
Peak level 86.6 %
Extraction speed 2.2 X
Track quality 100.0 %
Test CRC 03CC171D
Copy CRC 03CC171D
Copy OK
Track 8
Filename f:\Users\Guillermo\Desktop\EAC convertidos\08 Pista08.wav
Peak level 95.9 %
Extraction speed 2.2 X
Track quality 99.9 %
Test CRC 28EFE5F2
Copy CRC 28EFE5F2
Copy OK
Track 9
Filename f:\Users\Guillermo\Desktop\EAC convertidos\09 Pista09.wav
Peak level 59.9 %
Extraction speed 2.1 X
Track quality 100.0 %
Test CRC 1986C596
Copy CRC 1986C596
Copy OK
Track 10
Filename f:\Users\Guillermo\Desktop\EAC convertidos\10 Pista10.wav
Peak level 61.2 %
Extraction speed 2.6 X
Track quality 100.0 %
Test CRC 483BA4CA
Copy CRC 483BA4CA
Copy OK
Track 11
Filename f:\Users\Guillermo\Desktop\EAC convertidos\11 Pista11.wav
Peak level 75.4 %
Extraction speed 2.7 X
Track quality 100.0 %
Test CRC EDCDB829
Copy CRC EDCDB829
Copy OK
Track 12
Filename f:\Users\Guillermo\Desktop\EAC convertidos\12 Pista12.wav
Peak level 93.2 %
Extraction speed 3.1 X
Track quality 100.0 %
Test CRC 1B27B84A
Copy CRC 1B27B84A
Copy OK
Track 13
Filename f:\Users\Guillermo\Desktop\EAC convertidos\13 Pista13.wav
Peak level 94.8 %
Extraction speed 3.2 X
Track quality 100.0 %
Test CRC 8A6550C0
Copy CRC 8A6550C0
Copy OK
Track 14
Filename f:\Users\Guillermo\Desktop\EAC convertidos\14 Pista14.wav
Peak level 54.5 %
Extraction speed 3.3 X
Track quality 100.0 %
Test CRC D4217DC0
Copy CRC D4217DC0
Copy OK
Track 15
Filename f:\Users\Guillermo\Desktop\EAC convertidos\15 Pista15.wav
Peak level 77.0 %
Extraction speed 3.3 X
Track quality 100.0 %
Test CRC 1B022F9D
Copy CRC 1B022F9D
Copy OK
Track 16
Filename f:\Users\Guillermo\Desktop\EAC convertidos\16 Pista16.wav
Peak level 24.5 %
Extraction speed 2.2 X
Track quality 99.8 %
Test CRC 36B15931
Copy CRC 36B15931
Copy OK
Track 17
Filename f:\Users\Guillermo\Desktop\EAC convertidos\17 Pista17.wav
Peak level 85.2 %
Extraction speed 2.9 X
Track quality 100.0 %
Test CRC 36D50B49
Copy CRC 36D50B49
Copy OK
Track 18
Filename f:\Users\Guillermo\Desktop\EAC convertidos\18 Pista18.wav
Peak level 98.6 %
Extraction speed 3.3 X
Track quality 100.0 %
Test CRC B146A408
Copy CRC B146A408
Copy OK
No errors occurred
End of status report
==== Log checksum CE1572854B204709ACCBE89C2DC87F3B1FEE1CDE07B5BD0331B56AD9228B2FAE ====

Содержание индексной карты (.CUE)Содержание индексной карты (.CUE) CD 1

REM DISCID 120F6E11
REM COMMENT "ExactAudioCopy v1.0b3"
FILE "01 Pista01.wav" WAVE
TRACK 01 AUDIO
INDEX 01 00:00:00
FILE "02 Pista02.wav" WAVE
TRACK 02 AUDIO
INDEX 01 00:00:00
FILE "03 Pista03.wav" WAVE
TRACK 03 AUDIO
INDEX 01 00:00:00
FILE "04 Pista04.wav" WAVE
TRACK 04 AUDIO
INDEX 01 00:00:00
FILE "05 Pista05.wav" WAVE
TRACK 05 AUDIO
INDEX 01 00:00:00
FILE "06 Pista06.wav" WAVE
TRACK 06 AUDIO
INDEX 01 00:00:00
FILE "07 Pista07.wav" WAVE
TRACK 07 AUDIO
INDEX 01 00:00:00
FILE "08 Pista08.wav" WAVE
TRACK 08 AUDIO
INDEX 01 00:00:00
FILE "09 Pista09.wav" WAVE
TRACK 09 AUDIO
INDEX 01 00:00:00
FILE "10 Pista10.wav" WAVE
TRACK 10 AUDIO
INDEX 01 00:00:00
FILE "11 Pista11.wav" WAVE
TRACK 11 AUDIO
INDEX 01 00:00:00
FILE "12 Pista12.wav" WAVE
TRACK 12 AUDIO
INDEX 01 00:00:00
FILE "13 Pista13.wav" WAVE
TRACK 13 AUDIO
INDEX 01 00:00:00
FILE "14 Pista14.wav" WAVE
TRACK 14 AUDIO
INDEX 01 00:00:00
FILE "15 Pista15.wav" WAVE
TRACK 15 AUDIO
INDEX 01 00:00:00
FILE "16 Pista16.wav" WAVE
TRACK 16 AUDIO
INDEX 01 00:00:00
FILE "17 Pista17.wav" WAVE
TRACK 17 AUDIO
INDEX 01 00:00:00

Содержание индексной карты (.CUE) CD 2

REM DISCID BA0D9A0E
REM COMMENT "ExactAudioCopy v1.0b3"
FILE "01 Pista01.wav" WAVE
TRACK 01 AUDIO
INDEX 01 00:00:00
FILE "02 Pista02.wav" WAVE
TRACK 02 AUDIO
INDEX 01 00:00:00
FILE "03 Pista03.wav" WAVE
TRACK 03 AUDIO
INDEX 01 00:00:00
FILE "04 Pista04.wav" WAVE
TRACK 04 AUDIO
INDEX 01 00:00:00
FILE "05 Pista05.wav" WAVE
TRACK 05 AUDIO
INDEX 01 00:00:00
FILE "06 Pista06.wav" WAVE
TRACK 06 AUDIO
INDEX 01 00:00:00
FILE "07 Pista07.wav" WAVE
TRACK 07 AUDIO
INDEX 01 00:00:00
FILE "08 Pista08.wav" WAVE
TRACK 08 AUDIO
INDEX 01 00:00:00
FILE "09 Pista09.wav" WAVE
TRACK 09 AUDIO
INDEX 01 00:00:00
FILE "10 Pista10.wav" WAVE
TRACK 10 AUDIO
INDEX 01 00:00:00
FILE "11 Pista11.wav" WAVE
TRACK 11 AUDIO
INDEX 01 00:00:00
FILE "12 Pista12.wav" WAVE
TRACK 12 AUDIO
INDEX 01 00:00:00
FILE "13 Pista13.wav" WAVE
TRACK 13 AUDIO
INDEX 01 00:00:00
FILE "14 Pista14.wav" WAVE
TRACK 14 AUDIO
INDEX 01 00:00:00

Содержание индексной карты (.CUE) CD 3

REM DISCID F8118112
REM COMMENT "ExactAudioCopy v1.0b3"
FILE "01 Pista01.wav" WAVE
TRACK 01 AUDIO
INDEX 01 00:00:00
FILE "02 Pista02.wav" WAVE
TRACK 02 AUDIO
INDEX 01 00:00:00
FILE "03 Pista03.wav" WAVE
TRACK 03 AUDIO
INDEX 01 00:00:00
FILE "04 Pista04.wav" WAVE
TRACK 04 AUDIO
INDEX 01 00:00:00
FILE "05 Pista05.wav" WAVE
TRACK 05 AUDIO
INDEX 01 00:00:00
FILE "06 Pista06.wav" WAVE
TRACK 06 AUDIO
INDEX 01 00:00:00
FILE "07 Pista07.wav" WAVE
TRACK 07 AUDIO
INDEX 01 00:00:00
FILE "08 Pista08.wav" WAVE
TRACK 08 AUDIO
INDEX 01 00:00:00
FILE "09 Pista09.wav" WAVE
TRACK 09 AUDIO
INDEX 01 00:00:00
FILE "10 Pista10.wav" WAVE
TRACK 10 AUDIO
INDEX 01 00:00:00
FILE "11 Pista11.wav" WAVE
TRACK 11 AUDIO
INDEX 01 00:00:00
FILE "12 Pista12.wav" WAVE
TRACK 12 AUDIO
INDEX 01 00:00:00
FILE "13 Pista13.wav" WAVE
TRACK 13 AUDIO
INDEX 01 00:00:00
FILE "14 Pista14.wav" WAVE
TRACK 14 AUDIO
INDEX 01 00:00:00
FILE "15 Pista15.wav" WAVE
TRACK 15 AUDIO
INDEX 01 00:00:00
FILE "16 Pista16.wav" WAVE
TRACK 16 AUDIO
INDEX 01 00:00:00
FILE "17 Pista17.wav" WAVE
TRACK 17 AUDIO
INDEX 01 00:00:00
FILE "18 Pista18.wav" WAVE
TRACK 18 AUDIO
INDEX 01 00:00:00

Треклист

Disc 1:
1. Sinfonia
Act 1:
2. Né venne il re?
3. Ella di me sollecita
4. Sì taciturna e mesta
5. Deh non voler costringere
6. Come, innocente giovine
7. Non v'ha sguardo cui sia dato
8. Oh! qual parlar fu il suo!
9. Tutta in voi la luce mia
10. Tu mi lasci?
11. Chi veggo?
12. Da quel dì che, lei perduta
13. Ah! Così nei dì ridenti
14. Desta sì tosto
15. Voi, regina!...
16. Or che reso ai patri lidi
17. Questo dì per noi spuntato
Disc 2:
1. È sgombro il loco
2. Ah! Parea che per incanto
3. Taci... Taci
4. S'ei t'aborre
5. Tace ognuno
6. In quegli sguardi impresso
7. In separato carcere
8. Ah! Segnata è la mia sorte
Act 2:
9. Oh! Dove mai ne andarono
10. Dio, che mi vedi in core
11. Sul suo capo
12. Dal mio cor punita io sono
13. Va', infelice, e teco reca
Disc 3:
1. Ebben? Dinanzi ai giudici
2. Scostatevi... il Re giunge
3. Ambo morrete
4. Al Consiglio sien tratti
5. Sposa a Percy
6. Per questa fiamma indomita
7. A voi supremo giudice
8. Ah! Pensate che rivolti
9. Tu pur dannato a morte
10. Vivi tu, te ne scongiuro
11. Nel veder la tua costanza
12. Chi può vederla
13. Piangete voi?
14. Al dolce guidami
15. Qual mesto suon
16. Cielo, ai miei lunghi spasimi
17. Chi mi sveglia?
18. Coppia iniqua



Показать сообщения:    

Текущее время: 05-Дек 01:22

Часовой пояс: UTC + 3


Вы не можете начинать темы
Вы не можете отвечать на сообщения
Вы не можете редактировать свои сообщения
Вы не можете удалять свои сообщения
Вы не можете голосовать в опросах
Вы не можете прикреплять файлы к сообщениям
Вы не можете скачивать файлы