Биографии: Династия семьи Аньелли | Порфирио Рубироса / Biography: Agnelli Family Dynasty | Porfirio Rubirosa (Крис Уоррен / Chris Warren) [2007, Док. фильм, SATRip]


Статистика раздачи [Обновить пиров]
Размер:  1.02 GB   |    Зарегистрирован:  8 месяцев 18 дней   |    Скачан:  0 раз

Полного источника не было: Никогда

 
   
 
 
 

[Цитировать]

Биографии: Династия семьи Аньелли | Порфирио Рубироса / Biography: Agnelli Family Dynasty | Porfirio Rubirosa
Дата/Год выпуска: 2007
Страна: США
Жанр: Док. фильм
Продолжительность: 01:29:59
Перевод: Субтитры
Русские субтитры: есть
Формат субтитров: hardsub (неотключаемые)
Оригинальная аудиодорожка: английский
Режиссер: Крис Уоррен / Chris Warren
Описание: Две серии (раздаются одним файлом) из популярного цикла Biography. Они посвящены знаменитому итальянскому семейству Аньелли (владельцам компании ФИАТ) и легендарному "Порфирио Рубиросе"

SATRip от : Твид
Доп. информация: Любезно предоставлено клубом Fenix
Сэмпл: http://multi-up.com/1065241
качество: SATRip
формат: AVI
Видео: XviD, 1489 kb/s, 704x576, 25 fps, 0.147 bits/pixel
Аудио: 0x0055(MP3) ID'd as MPEG-1 Layer 3, 128 kb/s (2/ch, stereo) CBR, 48000 Hz - Английский

MediaInfo

Общее
Полное имя : D:\Fillms-1\Biografii.SAT-rip.by.Твид.fenixclub.avi
Формат : AVI
Формат/Информация : Audio Video Interleave
Размер файла : 1,02 Гбайт
Продолжительность : 1 ч. 29 м.
Общий поток : 1623 Кбит/сек
Программа кодирования : VirtualDubMod 1.5.10.2 (build 2540/release)
Библиотека кодирования : VirtualDub build 30009/release
Видео
Идентификатор : 0
Формат : MPEG-4 Visual
Профиль формата : Simple@L3
Параметр BVOP формата : 2
Параметр QPel формата : Нет
Параметр GMC формата : Без точки перехода
Параметр матрицы формата : Default (H.263)
Идентификатор кодека : XVID
Идентификатор кодека/Подсказка : XviD
Продолжительность : 1 ч. 29 м.
Битрейт : 1485 Кбит/сек
Ширина : 704 пикселя
Высота : 576 пикселей
Соотношение сторон : 1,222
Частота кадров : 25,000 кадров/сек
Стандарт вещания : PAL
Цветовое пространство : YUV
Субдискретизация насыщенности : 4:2:0
Битовая глубина : 8 бит
Тип развёртки : Прогрессивная
Метод сжатия : С потерями
Бит/(Пиксели*Кадры) : 0.147
Размер потока : 956 Мбайт (92%)
Библиотека кодирования : XviD 1.0.0 RC4 (Hola) (UTC 2004-04-05)
Аудио
Идентификатор : 1
Формат : MPEG Audio
Версия формата : Version 1
Профиль формата : Layer 3
Режим : Joint stereo
Расширение режима : MS Stereo
Идентификатор кодека : 55
Идентификатор кодека/Подсказка : MP3
Продолжительность : 1 ч. 29 м.
Вид битрейта : Постоянный
Битрейт : 128 Кбит/сек
Каналы : 2 канала
Частота : 48,0 КГц
Метод сжатия : С потерями
Размер потока : 82,4 Мбайт (8%)
Выравнивание : Разделение по промежуткам
Продолжительность промежутка : 40 мс. (1,00 видеокадр)
Время предзагрузки промежутка : 500 мс.

Скриншоты

[teatrix.ru].t22199.torrent 
Торрент: Зарегистрирован [ 2016-03-20 12:41 ] · E172C54548859C84E35FDA563F6D50A996F856A0

Скачать .torrent

Скачать

11 KB

Статус: проверено
Скачан: 0 раз
Размер: 1.02 GB
terms.php



Быстрый ответ

Имя:

      
Для отправки сообщений необходимо включить JavaScript
Показать сообщения:    

Текущее время: 07-Дек 19:30

Часовой пояс: UTC + 3


Вы можете начинать темы
Вы можете отвечать на сообщения
Вы не можете редактировать свои сообщения
Вы не можете удалять свои сообщения
Вы не можете голосовать в опросах
Вы не можете прикреплять файлы к сообщениям
Вы можете скачивать файлы