Счастливые дни / Szép napok / Pleasant Days (Корнел Мундруцо / Kornél Mundruczó) [2002, Венгрия, драма, DVDRip] DVO


Статистика раздачи [Обновить пиров]
Размер:  1.45 GB   |    Зарегистрирован:  8 месяцев 16 дней   |    Скачан:  1 раз

Полного источника не было: 2 месяца 2 дня

 
   
 
 
 

[Цитировать]

Счастливые дни / Szép napok / Pleasant Days
Страна: Венгрия
Жанр: драма
Год выпуска: 2002
Продолжительность: 01:22:42
Перевод: Профессиональный (двухголосый закадровый)
Cубтитры: нет
Оригинальная аудиодорожка: нет
Режиссер: Корнел Мундруцо / Kornél Mundruczó
В ролях: Тамаш Полгар, Оршойя Тот, Ката Вебер, Лайош Отто Хорват, Андраш Ретейи, Карой Куна и др.
О фильме: Петер возвращается из тюрьмы в родной город в надежде на то, что для него начнутся счастливые дни. С удивлением он узнает, что его сестра стала приемной матерью новорожденному мальчику, но настоящая мать ребенка сумасбродная и распутная Майя хочет забрать его назад. Петер влюбляется в Майю. Он разрывается между любимой девушкой и пытающейся манипулировать им сестрой. Но ему приходиться сделать выбор, и счастье, которое было так близко, тает в прозрачном воздухе.
Доп. информация: http://www.imdb.com/title/tt0304776/
Сэмпл: http://sendfile.su/1151573
Качество видео: DVDRip
Формат видео: AVI
Видео: 704x384 (1.83:1), 25 fps, XviD build 73 ~2119 kbps avg, 0.31 bit/pixel
Аудио: 48 kHz, AC3 Dolby Digital, 3/2 (L,C,R,l,r) + LFE ch, ~384 kbps avg

MediaInfo

Общее
Полное имя : H:\Фильмы\Счастливые дни\Szep.napok.2002.DVDRip.avi
Формат : AVI
Формат/Информация : Audio Video Interleave
Размер файла : 1,45 Гбайт
Продолжительность : 1 ч. 22 м.
Общий поток : 2512 Кбит/сек
Программа кодирования : VirtualDubMod 1.5.10.2 (build 2540/release)
Библиотека кодирования : VirtualDubMod build 2540/release
Авторское право : rip by Judas_X
Видео
Идентификатор : 0
Формат : MPEG-4 Visual
Профиль формата : Advanced Simple@L5
Параметр BVOP формата : 1
Параметр QPel формата : Нет
Параметр GMC формата : Без точки перехода
Параметр матрицы формата : Выборочная
Идентификатор кодека : XVID
Идентификатор кодека/Подсказка : XviD
Продолжительность : 1 ч. 22 м.
Битрейт : 2119 Кбит/сек
Ширина : 704 пикселя
Высота : 384 пикселя
Соотношение сторон : 1,85:1
Частота кадров : 25,000 кадров/сек
Цветовое пространство : YUV
Субдискретизация насыщенности : 4:2:0
Битовая глубина : 8 бит
Тип развёртки : Прогрессивная
Метод сжатия : С потерями
Бит/(Пиксели*Кадры) : 0.313
Размер потока : 1,22 Гбайт (84%)
Библиотека кодирования : XviD 73
Аудио
Идентификатор : 1
Формат : AC-3
Формат/Информация : Audio Coding 3
Расширение режима : CM (complete main)
Параметр Endianness формата : Big
Идентификатор кодека : 2000
Продолжительность : 1 ч. 22 м.
Вид битрейта : Постоянный
Битрейт : 384 Кбит/сек
Каналы : 6 каналов
Расположение каналов : Front: L C R, Side: L R, LFE
Частота : 48,0 КГц
Метод сжатия : С потерями
Размер потока : 227 Мбайт (15%)
Выравнивание : Соединение по промежуткам
Продолжительность промежутка : 40 мс. (1,00 видеокадр)
Время предзагрузки промежутка : 512 мс.
[teatrix.ru].t22200.torrent 
Торрент: Зарегистрирован [ 2016-03-20 12:41 ] · 9882AE9A4B95566C748CAF027D8C96501D7CA3AA

Скачать .torrent

Скачать

15 KB

Статус: проверено
Скачан: 1 раз
Размер: 1.45 GB
terms.php



Быстрый ответ

Имя:

      
Для отправки сообщений необходимо включить JavaScript
Показать сообщения:    

Текущее время: 05-Дек 21:36

Часовой пояс: UTC + 3


Вы можете начинать темы
Вы можете отвечать на сообщения
Вы не можете редактировать свои сообщения
Вы не можете удалять свои сообщения
Вы не можете голосовать в опросах
Вы не можете прикреплять файлы к сообщениям
Вы можете скачивать файлы