(Classical, Vocal) Aris Christofellis - L'age d'or des castrats • Bononcini • Bach • Storace • Duni • Hasse • Ariosti • Giacomelli • Porpora (Aris Christofellis - Ensemble d'instruments anciens) - 2003, APE (image+.cue) lossless


 

[Цитировать]

Aris Christofellis - L'age d'or des castrats
Жанр: Classical, Vocal
Страна-производитель диска: France
Год издания диска: 2003
Издатель (лейбл): EMI
Номер по каталогу: 5 85118 2
Дата записи: 1986/1988
Аудиокодек: APE
Тип рипа: image+.cue
Битрейт аудио: lossless
Продолжительность: 57'46+56'04
Источник: собственный рип
Наличие сканов в содержимом раздачи: да
Треклист:
CD1
Giovanni Battista Bononcini: Griselda: 3 Arias of Ernesto
1. Che giova fuggire
2. Troppo è il dolore
3. Per la gloria d'adoravi
Johann Christian Bach: 3 recitatives and rondos (Metastasio)
4. Misero me...Nel partir bell'idol mio
5. Ebben si vada...Io ti lascio
6. Mi scordi i torti miei...Dolce aurette
Stephen Storace: recitative and rondo for Tenducci
7. Ah, sei Poro mai vedi...Digli che son fedele
Egidio Duni: 3 arias for Farinelli (Metastasio)
8. La dolce compagna
9. Sperai vincino il lido
10. Misero Pargoletto"

CD2

Johann Adolf Hasse: Artaserse
1. Per questo dolce amplesso
2. Pallido il sole
Attilio Ariosti: Artaserse
3. Fortunate te passate (aria) and "Sia pur d'amore" (menuett)
Geminiano Giacomelli: Merope
4. Merope polifonte (recitativo) and Quel usignuolo che innamorato (aria)
Nicola Porpora: 3 Solfeggi
5. Adagio
6. Allegro non troppo
7. Andante
Riccardo Broschi: Merope
8. Taccia il vento e la tempesta
Nicola Porpora: Orfeo
9. Orfeo: Son pastorello amante
Egidio Duni: Demofoonte
10. Prudente mi chiedi
Leonardo Leo: Catone in Utica
11. Sarebbe un bel diletto
Исполнители:
Aris Christofellis, sopranista
Ensemble d'instruments anciens

Лог создания рипа

CD1

Exact Audio Copy V1.0 beta 6 from 9. April 2015
EAC extraction logfile from 5. September 2015, 2:56
Aris Christofellis / L'age d'or des castrats
Used drive : TSSTcorpCDDVDW SE-208AB Adapter: 1 ID: 2
Read mode : Secure
Utilize accurate stream : Yes
Defeat audio cache : Yes
Make use of C2 pointers : No
Read offset correction : 6
Overread into Lead-In and Lead-Out : No
Fill up missing offset samples with silence : Yes
Delete leading and trailing silent blocks : No
Null samples used in CRC calculations : Yes
Used interface : Native Win32 interface for Win NT & 2000
Used output format : Monkey's Audio Lossless Encoder
Selected bitrate : High Lossless Compression
Quality : High
Add ID3 tag : Yes
Command line compressor : C:\Program Files (x86)\Exact Audio Copy\MAC\MAC.exe
TOC of the extracted CD
Track | Start | Length | Start sector | End sector
---------------------------------------------------------
1 | 0:00.33 | 1:29.64 | 33 | 6771
2 | 1:30.22 | 5:47.10 | 6772 | 32806
3 | 7:17.32 | 2:33.58 | 32807 | 44339
4 | 9:51.15 | 7:11.27 | 44340 | 76691
5 | 17:02.42 | 7:06.46 | 76692 | 108687
6 | 24:09.13 | 7:04.62 | 108688 | 140549
7 | 31:14.00 | 5:30.25 | 140550 | 165324
8 | 36:44.25 | 6:05.53 | 165325 | 192752
9 | 42:50.03 | 6:42.65 | 192753 | 222967
10 | 49:32.68 | 8:11.28 | 222968 | 259820
Range status and errors
Selected range
Filename D:\EAC\Aris Christofellis - L'age d'or des castrats.wav
Peak level 83.5 %
Extraction speed 2.0 X
Range quality 100.0 %
Test CRC 08CB4EBB
Copy CRC 08CB4EBB
Copy OK
No errors occurred
AccurateRip summary
Track 1 not present in database
Track 2 not present in database
Track 3 not present in database
Track 4 not present in database
Track 5 not present in database
Track 6 not present in database
Track 7 not present in database
Track 8 not present in database
Track 9 not present in database
Track 10 not present in database
None of the tracks are present in the AccurateRip database
End of status report
---- CUETools DB Plugin V2.1.6
[CTDB TOCID: GhJHnF_56VIemIG.5ufYMsALBIw-] disk not present in database
Submit result: GhJHnF_56VIemIG.5ufYMsALBIw- has been uploaded
==== Log checksum 7B1F9D70592FE478A90EC21D2693ABF598838934635CF7F9CE18039ABD439F6A ====

CD2

Exact Audio Copy V1.0 beta 6 from 9. April 2015
EAC extraction logfile from 5. September 2015, 3:07
Aris Christoffellis / Hommage à Farinelli
Used drive : TS8XDVDSTRANSCEND Adapter: 1 ID: 1
Read mode : Secure
Utilize accurate stream : Yes
Defeat audio cache : Yes
Make use of C2 pointers : No
Read offset correction : 6
Overread into Lead-In and Lead-Out : No
Fill up missing offset samples with silence : Yes
Delete leading and trailing silent blocks : No
Null samples used in CRC calculations : Yes
Used interface : Native Win32 interface for Win NT & 2000
Used output format : Monkey's Audio Lossless Encoder
Selected bitrate : High Lossless Compression
Quality : High
Add ID3 tag : Yes
Command line compressor : C:\Program Files (x86)\Exact Audio Copy\MAC\MAC.exe
TOC of the extracted CD
Track | Start | Length | Start sector | End sector
---------------------------------------------------------
1 | 0:00.45 | 5:06.67 | 45 | 23061
2 | 5:07.37 | 4:53.66 | 23062 | 45102
3 | 10:01.28 | 5:13.06 | 45103 | 68583
4 | 15:14.34 | 9:57.39 | 68584 | 113397
5 | 25:11.73 | 3:06.18 | 113398 | 127365
6 | 28:18.16 | 3:21.59 | 127366 | 142499
7 | 31:40.00 | 2:05.07 | 142500 | 151881
8 | 33:45.07 | 8:29.28 | 151882 | 190084
9 | 42:14.35 | 1:49.41 | 190085 | 198300
10 | 44:04.01 | 5:08.06 | 198301 | 221406
11 | 49:12.07 | 6:50.01 | 221407 | 252157
Range status and errors
Selected range
Filename D:\EAC\Aris Christoffellis - Hommage à Farinelli.wav
Peak level 93.7 %
Extraction speed 2.0 X
Range quality 100.0 %
Test CRC 40D5AA4A
Copy CRC 40D5AA4A
Copy OK
No errors occurred
AccurateRip summary
Track 1 not present in database
Track 2 not present in database
Track 3 not present in database
Track 4 not present in database
Track 5 not present in database
Track 6 not present in database
Track 7 not present in database
Track 8 not present in database
Track 9 not present in database
Track 10 not present in database
Track 11 not present in database
None of the tracks are present in the AccurateRip database
End of status report
---- CUETools DB Plugin V2.1.6
[CTDB TOCID: k32DREXcesr5.UMKYLPuskGMmKw-] disk not present in database
Submit result: unrecognized or virtual drive
==== Log checksum A0F75419957A4080DAFC382E8EB31EF1E5BD330EE5396C1BF0C0B609A40EF4FE ====

Содержание индексной карты (.CUE)

CD1

REM GENRE Opera
REM DATE 1986
REM DISCID 860D880A
REM COMMENT "ExactAudioCopy v1.0b6"
PERFORMER "Aris Christofellis"
TITLE "L'age d'or des castrats"
FILE "Aris Christofellis - L'age d'or des castrats.ape" WAVE
TRACK 01 AUDIO
TITLE "Che giova fuggire"
PERFORMER "Bononcini - Griselda"
INDEX 00 00:00:00
INDEX 01 00:00:33
TRACK 02 AUDIO
TITLE "Troppo è il dolore"
PERFORMER "Bononcini - Griselda"
INDEX 00 01:28:50
INDEX 01 01:30:22
TRACK 03 AUDIO
TITLE "Per la gloria d'adorarvi"
PERFORMER "Bononcini - Griselda"
INDEX 00 07:15:35
INDEX 01 07:17:32
TRACK 04 AUDIO
TITLE "Misero me... Nel partir, bell'idol mio"
PERFORMER "J.S. Bach - Récitatifs & rondos Metastasio"
INDEX 00 09:48:59
INDEX 01 09:51:15
TRACK 05 AUDIO
TITLE "Ebben si vada... lo ti lascio"
PERFORMER "J.S. Bach - Récitatifs & rondos Metastasio"
INDEX 00 17:00:20
INDEX 01 17:02:42
TRACK 06 AUDIO
TITLE "Mi scordo i torti miei... Dolci aurette"
PERFORMER "J.S. Bach - Récitatifs & rondos Metastasio"
INDEX 00 24:04:20
INDEX 01 24:09:13
TRACK 07 AUDIO
TITLE "Ah, se Poro mai vedi... Digli che son fedele"
PERFORMER "Stephen Storage - Récitatifs & rondo pour Tenducci"
INDEX 00 31:10:25
INDEX 01 31:14:00
TRACK 08 AUDIO
TITLE "La dolce compagna"
PERFORMER "Egidio Duni - Airs pour Farinelli"
INDEX 00 36:41:73
INDEX 01 36:44:25
TRACK 09 AUDIO
TITLE "Sperai vicino il lido"
PERFORMER "Egidio Duni - Airs pour Farinelli"
INDEX 00 42:48:01
INDEX 01 42:50:03
TRACK 10 AUDIO
TITLE "Misero pargoletto"
PERFORMER "Egidio Duni - Airs pour Farinelli"
INDEX 00 49:31:07
INDEX 01 49:32:68

CD2

REM DISCID 860D220B
REM COMMENT "ExactAudioCopy v1.0b6"
PERFORMER "Aris Christoffellis"
TITLE "Hommage à Farinelli"
FILE "Aris Christoffellis - Hommage à Farinelli.ape" WAVE
TRACK 01 AUDIO
TITLE "Per questo dolce amplesso"
PERFORMER "Hasse - Ataserse"
INDEX 00 00:00:00
INDEX 01 00:00:45
TRACK 02 AUDIO
TITLE "Pallido il sole"
PERFORMER "Hasse - Ataserse"
INDEX 00 05:02:31
INDEX 01 05:07:37
TRACK 03 AUDIO
TITLE "Recitatif & menuet_Fortuna te passata_Sia pur d'amore"
PERFORMER "Ariosti - Artaserse"
INDEX 00 09:54:25
INDEX 01 10:01:28
TRACK 04 AUDIO
TITLE "Recitatif & Air_Merope Polifonte_Quel usignuolo che inna..."
PERFORMER "Giocomelli - Merope"
INDEX 00 15:09:57
INDEX 01 15:14:34
TRACK 05 AUDIO
TITLE "Tre sofeggi_I Adagio"
PERFORMER "Porpora "
INDEX 00 25:06:31
INDEX 01 25:11:73
TRACK 06 AUDIO
TITLE "Tre sofeggi_II Allegro non troppo"
PERFORMER "Porpora"
INDEX 00 28:15:60
INDEX 01 28:18:16
TRACK 07 AUDIO
TITLE "Tre sofeggi_III Andante"
PERFORMER "Porpora"
INDEX 00 31:36:03
INDEX 01 31:40:00
TRACK 08 AUDIO
TITLE "Taccia il vento e la tempesta"
PERFORMER "Broschi - Merope"
INDEX 00 33:39:61
INDEX 01 33:45:07
TRACK 09 AUDIO
TITLE "Son pastorello amante"
PERFORMER "Porpora - Orfeo"
INDEX 00 42:10:00
INDEX 01 42:14:35
TRACK 10 AUDIO
TITLE "Prudente mi chiedi"
PERFORMER "Duni"
INDEX 00 43:58:25
INDEX 01 44:04:01
TRACK 11 AUDIO
TITLE "Sarebbe un bei diletto"
PERFORMER "Leo - Catone in Utica"
INDEX 00 49:06:19
INDEX 01 49:12:07



Показать сообщения:    

Текущее время: 04-Дек 17:19

Часовой пояс: UTC + 3


Вы не можете начинать темы
Вы не можете отвечать на сообщения
Вы не можете редактировать свои сообщения
Вы не можете удалять свои сообщения
Вы не можете голосовать в опросах
Вы не можете прикреплять файлы к сообщениям
Вы не можете скачивать файлы