Вечному городу - вечная музыка. Концерт на Театральной площади (06.09.15) (Антон Сергеев, Леонид Овруцкий, Алексей Покрышкин) [2015, Classical, opera, concert, SATRip-AVC]


Статистика раздачи [Обновить пиров]
Размер:  1.01 GB   |    Зарегистрирован:  8 месяцев 14 дней   |    Скачан:  0 раз

Полного источника не было: Никогда

 
   
 
 
 

[Цитировать]

-Вечному городу - вечная музыка. Концерт на Театральной площади (06.09.15)Авторский проект вокальной группы "Кватро"- Год выпуска: 2015
Страна: Россия
Жанр: Classical, opera, concert
Продолжительность: 01:12:12
Язык: Русский
Перевод: не требуется
Субтитры: нет-Режиссер: Антон Сергеев, Леонид Овруцкий, Алексей Покрышкин
Исполнители: В концерте приняли участие популярные артисты и исполнители: группа "Кватро", Тамара Гвердцители, Глеб Матвейчук в сопровождении симфонического оркестра Москвы "Русская филармония", дирижер Сергей Тарарин. Специальный гость программы – звезда мировой оперной сцены Альбина Шагимуратова. А также: Алексей Татаринцев, Валерия, Ян Осин и Эмин.-Описание: Приурочено к Дню Москвы.
Концерт классической музыки "Вечному городу - вечная музыка" в 2015 году прошел на Театральной площади у стен Большого театра уже в четвертый раз. Концерт под открытым небом, сопровождаемый грандиозным световым шоу и праздничным салютом, вобрал в себя все лучшее: живой звук, оперные арии, романсы, эстрадную классику в исполнении известных артистов под виртуозное сопровождение оркестра. Он стал ярким и захватывающим спектаклем для москвичей и гостей столицы.-Доп. информация:
Автор Сценария: Татьяна Сенникова
Звукорежиссер: Евгений Силенко
Оператор-постановщик: Евгений Филиппов
Директор: Сергей Вершинин
Продюссер: Константин Сафронов-Семпл: https://yadi.sk/i/qwnD-Xp7iwuPP-Качество видео: SATRip-AVC
Формат: MKV
Видео кодек: H.264
Аудио кодек: AC3
Видео: 720x400 (1.80:1), 25 fps, ~1815 kbps
Аудио: 48 KHz, Dolby Digital, 2 канала, ~192 kbps-

Треклист

1) Симфонический оркестр Москвы "Русская филармония", дирижёр Сергей Тарарин;
2) "Ноктюрн" - А. Бабаджанян, Р. Рождественский;
3) "Только раз" - Б. Фомин, П. Герман;
4) Романс Неморино из оперы "Любовный напиток" - Г. Доницетти, исп. Алексей Татаринцев;
5) Песенка герцога из оперы "Риголетто" - Д. Верди
6) "Здесь хорошо" - С. Рахманинов, исп. Альбина Шагимуратова;
7) Ария Лауретты из оперы "Джанни Скикки" - Д. Пуччини;
8) "Гранада" - А. Лара, исп. Глеб Матвейчук;
9) "Любовь настала" - Р. Паулс, Р. Рождественнский, исп. Валерия;
10) "Необыкновенные глаза" - А. Бабаев, К. Сейтлиев (пер. А. Кронгауз), исп. группа "Кватро";
11) "Очи черные" - Ф. Герман, Е. Гребинка, исп. Ян Осин;
12) "Луч солнца золотого" - Г. Гладков, Ю. Энтин, исп. Эмин;
13) "Нежность" - А. Пахмутова, В. Добронравов, С. Гребенников, исп. Тамара Гвердцители;
14) "Арго" - А. Басилая, Д. Багашвили (пер. Ю. Ряшинцева);
15) "Благодарю тебя за все" - У. Афанасьев, Л. Овруцкий, Е. Ковская, исп. группа "Кватро";
16) "Верни мне музыку" - А. Бабаджанян, А. Вознесенский;
17) Застольная из оперы "Травиата" - Д. Верди.
-

MediaInfo

General
Unique ID : 184659618815794902518835508603677750077 (0x8AEC2620E8A1D286BB722A018716B33D)
Complete name : C:\Torrent\Вечному городу-вечная музыка.(06.09.15).SATRip-AVC by Dmitrio7197\Вечному городу-вечная музыка.(06.09.15).SATRip-AVC by Dmitrio7197.mkv
Format : Matroska
Format version : Version 2
File size : 1.01 GiB
Duration : 1h 12mn
Overall bit rate : 1 994 Kbps
Encoded date : UTC 2015-09-07 00:06:39
Writing application : mkvmerge v6.1.0 ('Old Devil') built on Mar 4 2013 09:10:42
Writing library : libebml v1.3.0 + libmatroska v1.4.0
Video
ID : 1
Format : AVC
Format/Info : Advanced Video Codec
Format profile : High@L4.1
Format settings, CABAC : Yes
Format settings, ReFrames : 8 frames
Codec ID : V_MPEG4/ISO/AVC
Duration : 1h 12mn
Bit rate : 1 800 Kbps
Width : 720 pixels
Height : 400 pixels
Display aspect ratio : 16:9
Frame rate mode : Constant
Frame rate : 25.000 fps
Color space : YUV
Chroma subsampling : 4:2:0
Bit depth : 8 bits
Scan type : Progressive
Bits/(Pixel*Frame) : 0.250
Stream size : 910 MiB (88%)
Writing library : x264 core 130 r2273 b3065e6
Encoding settings : cabac=1 / ref=8 / deblock=1:0:0 / analyse=0x3:0x113 / me=umh / subme=11 / psy=1 / psy_rd=1.00:0.00 / mixed_ref=1 / me_range=24 / chroma_me=1 / trellis=2 / 8x8dct=1 / cqm=0 / deadzone=21,11 / fast_pskip=1 / chroma_qp_offset=-2 / threads=6 / lookahead_threads=1 / sliced_threads=0 / nr=0 / decimate=0 / interlaced=0 / bluray_compat=0 / constrained_intra=0 / bframes=8 / b_pyramid=2 / b_adapt=1 / b_bias=0 / direct=3 / weightb=1 / open_gop=0 / weightp=2 / keyint=250 / keyint_min=25 / scenecut=40 / intra_refresh=0 / rc_lookahead=40 / rc=2pass / mbtree=1 / bitrate=1800 / ratetol=1.0 / qcomp=0.60 / qpmin=0 / qpmax=69 / qpstep=4 / cplxblur=20.0 / qblur=0.5 / ip_ratio=1.40 / aq=1:1.00
Default : Yes
Forced : No
Audio
ID : 2
Format : AC-3
Format/Info : Audio Coding 3
Mode extension : CM (complete main)
Format settings, Endianness : Big
Codec ID : A_AC3
Duration : 1h 12mn
Bit rate mode : Constant
Bit rate : 192 Kbps
Channel(s) : 2 channels
Channel positions : Front: L R
Sampling rate : 48.0 KHz
Bit depth : 16 bits
Compression mode : Lossy
Stream size : 99.2 MiB (10%)
Default : Yes
Forced : No
[teatrix.ru].t22214.torrent 
Торрент: Зарегистрирован [ 2016-03-20 12:40 ] · 1FF2B78C1714B5CF74CFD86B92AF287FC92C0358

Скачать .torrent

Скачать

11 KB

Статус: проверено
Скачан: 0 раз
Размер: 1.01 GB
terms.php



Быстрый ответ

Имя:

      
Для отправки сообщений необходимо включить JavaScript
Показать сообщения:    

Текущее время: 03-Дек 16:47

Часовой пояс: UTC + 3


Вы можете начинать темы
Вы можете отвечать на сообщения
Вы не можете редактировать свои сообщения
Вы не можете удалять свои сообщения
Вы не можете голосовать в опросах
Вы не можете прикреплять файлы к сообщениям
Вы можете скачивать файлы