[TR24][SM][OF] Chilly Gonzales feat. Kaiser Quartett - Chambers - 2015 (Contemporary Classical)


Статистика раздачи [Обновить пиров]
Размер:  403 MB   |    Зарегистрирован:  8 месяцев 20 дней   |    Скачан:  0 раз

Полного источника не было: Никогда

 
   
 
 
 

[Цитировать]

·
·
·
·
Jason Charles Beck (*1972)
CHAMBERS
Жанр: Chamber Music
Носитель: Official Digital Download
Год издания диска: 2015
Издатель(лейбл): © Gentle Threat Ltd.
Номер по каталогу: GENTLE018
Продолжительность: 00:42:13
Наличие сканов в содержимом раздачи: artwork
Контейнер: FLAC (*.flac)
Разрядность: 24/44,1
Количество каналов: 2.0
Формат: tracks
Источник: chillygonzales.spinshop.com
Pелизер: WEB (thanks to the original customer)

Треклист

01 Prelude To A Feud02:24
02 Advantage Points 03:43
03 Sweet Burden 04:21
04 Green's Leaves 02:43
05 Freudian Slippers 05:34
06 Solitaire 01:43
07 Odessa 03:36
08 Sample This 03:10
09 The Difference 01:58
10 Cello Gonzales 02:53
11 Switchcraft 04:18 *
12 Myth Me 03:13
Nathalie Hauptmann flute *
Hasko Kröger french horn *
WEBSTORE EXCLUSIVE BONUS TRACK
13 (Not) A Musical Genius 02:37

Исполнители


Composed and performed by
CHILLY GONZALESfeaturing
KAISER QUARTETT
Adam Zolynski 1st violin
Jansen Folkers 2nd violin
Ingmar Süberkrüb viola
Martin Bentz cello

Dynamic Range Meter

foobar2000 1.2.6 / Dynamic Range Meter 1.1.1
log date: 2015-09-08 22:01:17
--------------------------------------------------------------------------------
Analyzed: Chilly Gonzales Feat. Kaiser Quartett / Chambers
--------------------------------------------------------------------------------
DR Peak RMS Duration Track
--------------------------------------------------------------------------------
DR12 -1.86 dB -18.26 dB 2:24 01-Prelude To A Feud
DR10 -0.10 dB -15.17 dB 3:44 02-Advantage Points
DR12 -0.10 dB -17.13 dB 4:22 03-Sweet Burden
DR11 -0.10 dB -15.25 dB 2:43 04-Green's Leaves
DR15 -0.10 dB -19.23 dB 5:35 05-Freudian Slippers
DR10 -4.01 dB -16.50 dB 1:44 06-Solitaire
DR11 -0.10 dB -16.12 dB 3:37 07-Odessa
DR13 -0.10 dB -16.65 dB 3:11 08-Sample This
DR10 -0.15 dB -14.35 dB 1:58 09-The Difference
DR12 -0.10 dB -17.68 dB 2:53 10-Cello Gonzales
DR10 -0.15 dB -14.26 dB 4:19 11-Switchcraft
DR10 -0.15 dB -13.36 dB 3:13 12-Myth Me
DR11 -0.15 dB -14.07 dB 2:37 13-(Not) A Musical Genius (Bonus Track)
--------------------------------------------------------------------------------
Number of tracks: 13
Official DR value: DR11
Samplerate: 44100 Hz
Channels: 2
Bits per sample: 24
Bitrate: 1436 kbps
Codec: FLAC
================================================================================
[teatrix.ru].t22216.torrent 
Торрент: Зарегистрирован [ 2016-03-20 12:40 ] · CAEB82337ADD1827B9678D1465B7E688195DC527

Скачать .torrent

Скачать

17 KB

Статус: проверено
Скачан: 0 раз
Размер: 403 MB
terms.php



Быстрый ответ

Имя:

      
Для отправки сообщений необходимо включить JavaScript
Показать сообщения:    

Текущее время: 09-Дек 16:30

Часовой пояс: UTC + 3


Вы можете начинать темы
Вы можете отвечать на сообщения
Вы не можете редактировать свои сообщения
Вы не можете удалять свои сообщения
Вы не можете голосовать в опросах
Вы не можете прикреплять файлы к сообщениям
Вы можете скачивать файлы