(Opera, Vocal) Carlo Tagliabue - Recital (Compilation of Operatic Arias for baritone by Verdi, Rossini, Leoncavallo, Bellini, Bizet, Wagner), 1939-1946 - studio recording / 1997, FLAC (tracks+.cue), lossless


 

[Цитировать]

Carlo Tagliabue - Recital
Жанр: Opera, Vocal
Страна-производитель диска: Италия
Год издания диска: 1997
Издатель (лейбл): OPERA
Дата записи: 1939-1946
Аудиокодек: FLAC
Тип рипа: tracks+.cue
Битрейт аудио: lossless
Продолжительность: 60:41
Источник: релизер (Guillermo)
Исполнители:
Carlo Tagliabue, baritone.

Лог создания рипа

Exact Audio Copy V1.0 beta 3 from 29. August 2011
EAC extraction logfile from 20. August 2015, 9:17
Carlo Tagliabue / Recital
Used drive : HL-DT-STDVDRAM GH24NSC0 Adapter: 3 ID: 0
Read mode : Secure
Utilize accurate stream : Yes
Defeat audio cache : Yes
Make use of C2 pointers : No
Read offset correction : 6
Overread into Lead-In and Lead-Out : No
Fill up missing offset samples with silence : Yes
Delete leading and trailing silent blocks : No
Null samples used in CRC calculations : Yes
Used interface : Native Win32 interface for Win NT & 2000
Gap handling : Appended to previous track
Used output format : User Defined Encoder
Selected bitrate : 768 kBit/s
Quality : High
Add ID3 tag : No
Command line compressor : C:\Program Files (x86)\Exact Audio Copy\FLAC\FLAC.EXE
Additional command line options : -8 -V -T "ARTIST=%artist%" -T "TITLE=%title%" -T "ALBUM=%albumtitle%" -T "DATE=%year%" -T "TRACKNUMBER=%tracknr%" -T "GENRE=%genre%" -T "PERFORMER=%albuminterpret%" -T "COMPOSER=%composer%" %haslyrics%--tag-from-file=LYRICS="%lyricsfile%"%haslyrics% -T "ALBUMARTIST=%albumartist%" -T "DISCNUMBER=%cdnumber%" -T "TOTALDISCS=%totalcds%" -T "TOTALTRACKS=%numtracks%" -T "COMMENT=%comment%" %source% -o %dest%
TOC of the extracted CD
Track | Start | Length | Start sector | End sector
---------------------------------------------------------
1 | 0:00.00 | 4:31.69 | 0 | 20393
2 | 4:31.69 | 3:41.01 | 20394 | 36969
3 | 8:12.70 | 3:22.70 | 36970 | 52189
4 | 11:35.65 | 4:27.29 | 52190 | 72243
5 | 16:03.19 | 5:29.04 | 72244 | 96922
6 | 21:32.23 | 7:02.50 | 96923 | 128622
7 | 28:34.73 | 4:35.40 | 128623 | 149287
8 | 33:10.38 | 4:35.41 | 149288 | 169953
9 | 37:46.04 | 4:21.14 | 169954 | 189542
10 | 42:07.18 | 3:50.15 | 189543 | 206807
11 | 45:57.33 | 6:49.13 | 206808 | 237495
12 | 52:46.46 | 4:34.35 | 237496 | 258080
13 | 57:21.06 | 4:14.12 | 258081 | 277142
Track 1
Filename f:\Users\Guillermo\Desktop\EAC convertidos\01 oh de' ver'anni mei - Ernani.wav
Pre-gap length 0:00:02.00
Peak level 60.5 %
Extraction speed 1.7 X
Track quality 100.0 %
Test CRC DDFC5796
Copy CRC DDFC5796
Copy OK
Track 2
Filename f:\Users\Guillermo\Desktop\EAC convertidos\02 Pari siamo - Rigoletto.wav
Pre-gap length 0:00:03.38
Peak level 65.7 %
Extraction speed 1.8 X
Track quality 100.0 %
Test CRC 136A13AB
Copy CRC 136A13AB
Copy OK
Track 3
Filename f:\Users\Guillermo\Desktop\EAC convertidos\03 Il Balen - Il Travatore.wav
Pre-gap length 0:00:03.66
Peak level 43.9 %
Extraction speed 1.9 X
Track quality 100.0 %
Test CRC 876ECD8B
Copy CRC 876ECD8B
Copy OK
Track 4
Filename f:\Users\Guillermo\Desktop\EAC convertidos\04 Credo - Otello.wav
Pre-gap length 0:00:03.33
Peak level 68.4 %
Extraction speed 1.9 X
Track quality 99.9 %
Test CRC 10A905E9
Copy CRC 10A905E9
Copy OK
Track 5
Filename f:\Users\Guillermo\Desktop\EAC convertidos\05 Son Pereda - La Forza del destino.wav
Pre-gap length 0:00:03.41
Peak level 53.5 %
Extraction speed 2.4 X
Track quality 100.0 %
Test CRC 2D70A77C
Copy CRC 2D70A77C
Copy OK
Track 6
Filename f:\Users\Guillermo\Desktop\EAC convertidos\06 morir tremenda cosa - La forza del destino.wav
Pre-gap length 0:00:03.28
Peak level 49.4 %
Extraction speed 2.7 X
Track quality 100.0 %
Test CRC 6FE9F9AF
Copy CRC 6FE9F9AF
Copy OK
Track 7
Filename f:\Users\Guillermo\Desktop\EAC convertidos\07 Eri tu - Un Ballo in Maschera.wav
Pre-gap length 0:00:03.34
Peak level 46.6 %
Extraction speed 2.5 X
Track quality 100.0 %
Test CRC 00BA7668
Copy CRC 00BA7668
Copy OK
Track 8
Filename f:\Users\Guillermo\Desktop\EAC convertidos\08 Larg al factotum - Il Bariere di Siviglia.wav
Pre-gap length 0:00:03.57
Peak level 51.5 %
Extraction speed 2.9 X
Track quality 100.0 %
Test CRC BD899981
Copy CRC BD899981
Copy OK
Track 9
Filename f:\Users\Guillermo\Desktop\EAC convertidos\09 Ah! per sempre - I Puritani.wav
Pre-gap length 0:00:03.34
Peak level 45.4 %
Extraction speed 3.0 X
Track quality 100.0 %
Test CRC 802750E7
Copy CRC 802750E7
Copy OK
Track 10
Filename f:\Users\Guillermo\Desktop\EAC convertidos\10 O tu bell'astro incantator - Tanhauser.wav
Pre-gap length 0:00:03.44
Peak level 35.2 %
Extraction speed 3.0 X
Track quality 100.0 %
Test CRC F66EB3BC
Copy CRC F66EB3BC
Copy OK
Track 11
Filename f:\Users\Guillermo\Desktop\EAC convertidos\11 Il nembo si calmo - I pescator di perl.wav
Pre-gap length 0:00:03.38
Peak level 55.8 %
Extraction speed 3.0 X
Track quality 99.9 %
Test CRC A5ECFE3A
Copy CRC A5ECFE3A
Copy OK
Track 12
Filename f:\Users\Guillermo\Desktop\EAC convertidos\12 Con voi ber affe fia caro - Carmen.wav
Pre-gap length 0:00:03.37
Peak level 60.1 %
Extraction speed 3.3 X
Track quality 100.0 %
Test CRC FC525ADC
Copy CRC FC525ADC
Copy OK
Track 13
Filename f:\Users\Guillermo\Desktop\EAC convertidos\13 Si puo - I pagliacci.wav
Pre-gap length 0:00:03.34
Peak level 57.3 %
Extraction speed 3.4 X
Track quality 100.0 %
Test CRC 3175FE78
Copy CRC 3175FE78
Copy OK
No errors occurred
End of status report
==== Log checksum F8235E6E4F451A5C9DC715F5CAE6165BB781E527A460B64A8A28DE2534E71BEA ====

Содержание индексной карты (.CUE)

REM GENRE opera
REM DATE 1997
REM DISCID D80E6F0D
REM COMMENT "ExactAudioCopy v1.0b3"
FILE "01 oh de' ver'anni mei - Ernani.wav" WAVE
TRACK 01 AUDIO
INDEX 01 00:00:00
TRACK 02 AUDIO
INDEX 00 04:28:40
FILE "02 Pari siamo - Rigoletto.wav" WAVE
INDEX 01 00:00:00
TRACK 03 AUDIO
INDEX 00 03:37:26
FILE "03 Il Balen - Il Travatore.wav" WAVE
INDEX 01 00:00:00
TRACK 04 AUDIO
INDEX 00 03:19:45
FILE "04 Credo - Otello.wav" WAVE
INDEX 01 00:00:00
TRACK 05 AUDIO
INDEX 00 04:23:73
FILE "05 Son Pereda - La Forza del destino.wav" WAVE
INDEX 01 00:00:00
TRACK 06 AUDIO
INDEX 00 05:25:58
FILE "06 morir tremenda cosa - La forza del destino.wav" WAVE
INDEX 01 00:00:00
TRACK 07 AUDIO
INDEX 00 06:59:24
FILE "07 Eri tu - Un Ballo in Maschera.wav" WAVE
INDEX 01 00:00:00
TRACK 08 AUDIO
INDEX 00 04:31:72
FILE "08 Larg al factotum - Il Bariere di Siviglia.wav" WAVE
INDEX 01 00:00:00
TRACK 09 AUDIO
INDEX 00 04:32:15
FILE "09 Ah! per sempre - I Puritani.wav" WAVE
INDEX 01 00:00:00
TRACK 10 AUDIO
INDEX 00 04:17:56
FILE "10 O tu bell'astro incantator - Tanhauser.wav" WAVE
INDEX 01 00:00:00
TRACK 11 AUDIO
INDEX 00 03:46:61
FILE "11 Il nembo si calmo - I pescator di perl.wav" WAVE
INDEX 01 00:00:00
TRACK 12 AUDIO
INDEX 00 06:45:60
FILE "12 Con voi ber affe fia caro - Carmen.wav" WAVE
INDEX 01 00:00:00
TRACK 13 AUDIO
INDEX 00 04:31:09
FILE "13 Si puo - I pagliacci.wav" WAVE
INDEX 01 00:00:00

Треклист

Giuseppe Verdi:
1. Ernani: "Oh de' verd'anni miei" (1946)
2. Rigoletto: "Pari siamo" (1946)
3. Il Trovatore: "Il balen del suo sorriso" (1946)
4. Otello: "Credo in un Dio crudel" (1942)
La forza del destino (1941):
5. "Son Pereda"
6. "Morir tremenda cosa"
7. Un ballo in maschera: "Eri tu che macchiavi" (1939)
8. Gioachino Rossini - Il barbiere di Siviglia: "Largo al factotum" (1946)
9. Vincenzo Bellini - I Puritani: "Or dove fuggo io mai" (1946)
10. Richard Wagner - Tannhäuser: "O tu bell'astro incantator" (1946)
Georges Bizet:
11. Les Pêcheurs de perles: "Il nembo si calm" (1946)
12. Carmen: "Con voi ber affè mi fia caro" (1942)
13. Ruggero Leoncavallo - Pagliacci: "Si puo" (1939)



Показать сообщения:    

Текущее время: 04-Дек 00:45

Часовой пояс: UTC + 3


Вы не можете начинать темы
Вы не можете отвечать на сообщения
Вы не можете редактировать свои сообщения
Вы не можете удалять свои сообщения
Вы не можете голосовать в опросах
Вы не можете прикреплять файлы к сообщениям
Вы не можете скачивать файлы