[TR24][OF] A French Baroque Diva: Arias for Marie Fel by Rameau, Lacoste, Lalande, Rousseau, Fiocco, Mondonville (Carolyn Sampson, Ex Cathedra & Jeffrey Skidmore) - 2014 (Baroque, Opera, Vocal, Classical)


Статистика раздачи [Обновить пиров]
Размер:  1.37 GB   |    Зарегистрирован:  8 месяцев 21 день   |    Скачан:  0 раз

Полного источника не было: Никогда

 
   
 
 
 

[Цитировать]

A French Baroque Diva: Arias for Marie Fel by Rameau, Lacoste, Lalande, Rousseau, Fiocco (Carolyn Sampson, Ex Cathedra & Jeffrey Skidmore)
Формат записи/Источник записи: [TR24][OF]
Наличие водяных знаков: Нет
Год издания/переиздания диска: 2014
Жанр: Baroque, Opera, Vocal, Classical
Издатель(лейбл): Hyperion
Продолжительность: 01:12:55
Исполнители:
Carolyn Sampson (soprano),
Ex Cathedra (orchestra),
Jeffrey Skidmore (conductor).
Recorded on July 3, 2013 - July 5, 2013, at All Hallows, Gospel Oak, London.
Контейнер: FLAC (*.flac)
Тип рипа: tracks
Разрядность: 24/96
Количество каналов: 2.0
Источник: Hyperion

Dynamic Range Meter

foobar2000 1.3.6 / Замер динамического диапазона (DR) 1.1.1
Дата отчёта: 2015-09-09 00:07:54
--------------------------------------------------------------------------------
Анализ: Jeffrey Skidmore / A French Baroque Diva
--------------------------------------------------------------------------------
DR Пики RMS Продолжительность трека
--------------------------------------------------------------------------------
DR14 -0.10 дБ -18.75 дБ 9:01 01-Philomèle - Prologue Scene 1: Ah! quand reviendront nos beaux jours?
DR13 -0.10 дБ -16.48 дБ 2:29 02-Exsurgat Deus, S71 - Movement 5: Regna terrae
DR12 -1.42 дБ -17.54 дБ 1:48 03-Te Deum laudamus, S32 - Movement 01: Sinfonie
DR12 -0.63 дБ -19.71 дБ 1:58 04-Te Deum laudamus, S32 - Movement 08: Tu rex gloriae
DR13 -2.77 дБ -21.94 дБ 3:22 05-Te Deum laudamus, S32 - Movement 09: Tu ad liberandum suscepturus hominem
DR14 -0.10 дБ -20.70 дБ 4:32 06-Salve regina - Part 1: Salve regina, salve mater
DR9 -3.08 дБ -19.84 дБ 0:50 07-Salve regina - Part 2: Ad te clamamus, exsules, filii Evae
DR15 -0.66 дБ -21.80 дБ 4:17 08-Salve regina - Part 3: O clemens, o pia
DR14 -0.88 дБ -21.06 дБ 7:03 09-Castor et Pollux - Act 1 Scenes 2-3: Un tendre intérêt vous appelle – Tristes apprêts
DR12 -0.09 дБ -17.25 дБ 3:07 10-Platée - Act 3 Scene 4: Amour, lance tes traits
DR14 -0.09 дБ -19.89 дБ 3:48 11-Daphnis et Alcimadure - Act 1 Scene 2: Gasouillats auzeléts
DR14 -0.42 дБ -20.30 дБ 1:32 12-Laudate pueri - Part 1: Laudate pueri
DR14 -0.60 дБ -21.08 дБ 3:19 13-Laudate pueri - Part 3: A solis ortu
DR14 -1.13 дБ -19.63 дБ 1:53 14-Laudate pueri - Part 4: Alleluia
DR12 -5.50 дБ -22.62 дБ 3:04 15-Venite, exsultemus - Movement 4: Venite, adoremus
DR12 -0.10 дБ -16.72 дБ 3:44 16-La lyre enchantée - No 1: Accordez vos sons et vos pas
DR14 -0.72 дБ -20.95 дБ 1:52 17-La lyre enchantée - No 2: Gavotte: Lyre enchanteresse
DR12 -0.43 дБ -19.34 дБ 1:54 18-La lyre enchantée - No 3: Écoutons … D'un doux frémissement
DR13 -0.05 дБ -17.18 дБ 3:36 19-La lyre enchantée - No 4: Vole, Amour, prête-moi tes armes
DR13 -0.01 дБ -18.69 дБ 1:45 20-La lyre enchantée - No 5: Contredanse
DR14 -0.64 дБ -19.48 дБ 5:08 21-Cantate Domino, S72 - Movement 5: Viderunt omnes termini terrae
DR13 -2.56 дБ -20.32 дБ 2:53 22-Venite, exsultemus - Movement 6: Hodie si vocem
--------------------------------------------------------------------------------
Количество треков: 22
Реальные значения DR: DR13
Частота: 96000 Гц
Каналов: 2
Разрядность: 24
Битрейт: 2582 кбит/с
Кодек: FLAC
================================================================================

Треклист

01. Louis Lacoste - Philomèle - Prologue Scene 1: Ah! quand reviendront nos beaux jours?
Michel-Richard de Lalande:
02. Exsurgat Deus, S71 - Movement 5: Regna terrae
Te Deum laudamus, S32:
03. Movement 01: Sinfonie
04. Movement 08: Tu rex gloriae
05. Movement 09: Tu ad liberandum suscepturus hominem
Jean-Jacques Rousseau - Salve regina:
06. Part 1: Salve regina, salve mater
07. Part 2: Ad te clamamus, exsules, filii Evae
08. Part 3: O clemens, o pia
09. Jean-Joseph Cassanéa de Mondonville - Castor et Pollux - Act 1 Scenes 2-3: Un tendre intérêt vous appelle – Tristes apprêts
10. Jean-Philippe Rameau - Platée - Act 3 Scene 4: Amour, lance tes traits
11. Jean-Joseph Cassanéa de Mondonville - Daphnis et Alcimadure - Act 1 Scene 2: Gasouillats auzeléts
Joseph Hector Fiocco - Laudate pueri:
12. Part 1: Laudate pueri
13. Part 3: A solis ortu
14. Part 4: Alleluia
15. Jean-Joseph Cassanéa de Mondonville - Venite, exsultemus - Movement 4: Venite, adoremus
Jean-Philippe Rameau - La lyre enchantée:
16. No 1: Accordez vos sons et vos pas
17. No 2: Gavotte: Lyre enchanteresse
18. No 3: Écoutons … D'un doux frémissement
19. No 4: Vole, Amour, prête-moi tes armes
20. No 5: Contredanse
21. Michel-Richard de Lalande - Cantate Domino, S72 - Movement 5: Viderunt omnes termini terrae
22. Jean-Joseph Cassanéa de Mondonville - Venite, exsultemus - Movement 6: Hodie si vocem
[teatrix.ru].t22218.torrent 
Торрент: Зарегистрирован [ 2016-03-20 12:40 ] · 54D1ABBD19806CEFEBD504264D5C691CCB86FDE4

Скачать .torrent

Скачать

16 KB

Статус: проверено
Скачан: 0 раз
Размер: 1.37 GB
terms.php



Быстрый ответ

Имя:

      
Для отправки сообщений необходимо включить JavaScript
Показать сообщения:    

Текущее время: 11-Дек 09:07

Часовой пояс: UTC + 3


Вы можете начинать темы
Вы можете отвечать на сообщения
Вы не можете редактировать свои сообщения
Вы не можете удалять свои сообщения
Вы не можете голосовать в опросах
Вы не можете прикреплять файлы к сообщениям
Вы можете скачивать файлы