Игра в бисер с Игорем Волгиным (Андрей Туринов) [2015 - 2016, Ток-шоу, DVB] Обновлено 02.03.2016


Статистика раздачи [Обновить пиров]
Размер:  19.49 GB   |    Зарегистрирован:  8 месяцев 14 дней   |    Скачан:  0 раз

Полного источника не было: Никогда

 
   
 
 
 

[Цитировать]

Игра в бисер с Игорем Волгиным
Дата/Год выпуска: 2015
Страна: Россия
Жанр: Ток-шоу
Продолжительность: ~ 00:39:00 выпуск
Перевод: Не требуется
Режиссер: Андрей Туринов
Телеканал: Россия Культура
Описание: Ведущий ток-шоу Игорь Волгин приглашает поучастовать в своеобразной игре для всех, кто воспринимает мировую литературу как уже написанную книгу, которую никто и никогда не постигнет до конца, и, тем не менее, каждое новое прочтение удивительно.
Когда мы говорим, что классика всегда современна, мы не задумываемся, что именно в созданном десятилетия, а то и века назад художественном произведении созвучно дню сегодняшнему, представлению современного человека о себе самом. Участники ток-шоу "Игра в бисер" с Игорем Волгиным пытаются найти ответы на этот вопрос и, заглянув в лучшие образцы мировой литературы, понять - кто мы и что мы.
Доп. информация: Все раздачи программы http://teatrix.ru/tracker.php?nm=%D0%98%D0%B3%D1%80%D0%B0%20%D0%B2%20%D0...0%BD%D1%8B%D0%BC
качество: DVB
формат: MPG
Видео: MPEG-PS, 768@720x576, 4:3, 3157 kbps, 0.304 bit/pixel, 25 fps
Аудио: MPEG-1 Layer 2, 192 Кбит/сек, 48000Hz 2 ch

Список выпусков/серий

2015-09-08. Х.-К. Андерсен - Сказки
2015-09-15. Ф.М. Достоевский - Братья Карамазовы
2015-09-22. Борис Слуцкий - Лирика
2015-09-29. Александр Солженицын - Один день Ивана Денисовича
2015-10-06. Ильф и Петров - Золотой теленок
2015-10-20. А. Дюма - Граф Монте-Кристо
2015-10-27. Л. Толстой - Смерть Ивана Ильича
2015-11-03. А.С. Пушкин - Борис Годунов
2015-11-17. О.Генри - Рассказы
2015-11-24. Константин Симонов - Лирика
2015-12-01. Владимир Набоков - Дар
2015-12-15. М. Шолохов - Тихий Дон
2015-12-22. В. Распутин - Прощание с Матерой
2015-12-24. А. и Б. Стругацкие - Понедельник начинается в субботу
2016-01-19. Ф.М. Достоевский - Бедные люди
2016-01-26. А.П. Чехов - Дом с мезонином
2016-02-02. Евгений Шварц - Дракон
2016-02-09. Лопе де Вега - Собака на сене
2016-02-16. Александр Межиров - Лирика
2016-03-01. Станислав Лем - Солярис
2016-03-15. Ю.Н. Тынянов - Архаисты и новаторы

MediaInfo

Общее
Полное имя : D:\Игра в бисер c Игорем Волгиным. Сезон 2015-2016\2015-09-08. Х.-К. Андерсен - Сказки.mpg
Формат : MPEG-PS
Размер файла : 953 Мбайт
Продолжительность : 39 м.
Режим общего битрейта : Переменный
Общий поток : 3417 Кбит/сек
Библиотека кодирования : (c) 1998-2009 Womble Multimedia, Inc. / MPEG Video Wizard (03/2009) / Jun 24 2009
Видео
Идентификатор : 224 (0xE0)
Формат : MPEG Video
Версия формата : Version 2
Профиль формата : Main@Main
Параметр BVOP формата : Да
Параметр матрицы формата : Выборочная
Параметр GOP формата : Variable
Format_Settings_PictureStructure : Frame
Продолжительность : 38 м.
Вид битрейта : Переменный
Битрейт : 3157 Кбит/сек
Максимальный битрейт : 15,0 Мбит/сек
Ширина : 720 пикселей
Высота : 576 пикселей
Соотношение сторон : 4:3
Частота кадров : 25,000 кадров/сек
Стандарт вещания : PAL
Цветовое пространство : YUV
Субдискретизация насыщенности : 4:2:0
Битовая глубина : 8 бит
Тип развёртки : Чересстрочная
Порядок развёртки : Верхнее поле первое
Метод сжатия : С потерями
Бит/(Пиксели*Кадры) : 0.304
Временной код первого кадра : 00:00:00:00
Оригинал временного кода : Group of pictures header
Размер потока : 881 Мбайт (92%)
Библиотека кодирования : (c) 1998-2009 Womble Multimedia, Inc. / MPEG Video Wizard (03/2009) / Jun 24 2009
Аудио
Идентификатор : 192 (0xC0)
Формат : MPEG Audio
Версия формата : Version 1
Профиль формата : Layer 2
Продолжительность : 39 м.
Вид битрейта : Постоянный
Битрейт : 192 Кбит/сек
Каналы : 2 канала
Частота : 48,0 КГц
Метод сжатия : С потерями
Задержка видео : -40 мс.
Размер потока : 53,6 Мбайт (6%)

Скриншоты

[teatrix.ru].t22219.torrent 
Торрент: Зарегистрирован [ 2016-03-20 12:40 ] · A7B5C116DECAA1B0328D8A3714B0391023D35A2F

Скачать .torrent

Скачать

100 KB

Статус: проверено
Скачан: 0 раз
Размер: 19.49 GB
terms.php



Быстрый ответ

Имя:

      
Для отправки сообщений необходимо включить JavaScript
Показать сообщения:    

Текущее время: 04-Дек 09:10

Часовой пояс: UTC + 3


Вы можете начинать темы
Вы можете отвечать на сообщения
Вы не можете редактировать свои сообщения
Вы не можете удалять свои сообщения
Вы не можете голосовать в опросах
Вы не можете прикреплять файлы к сообщениям
Вы можете скачивать файлы