[TR24][SM][OF] The Art of Chopin - The Piano Concertos (Elizabeth Sombart, RPO, Pierre Vallet) - 2015 (Classical)


Статистика раздачи [Обновить пиров]
Размер:  1.29 GB   |    Зарегистрирован:  8 месяцев 17 дней   |    Скачан:  0 раз

Полного источника не было: Никогда

 
   
 
 
 

[Цитировать]

The Art of Chopin - The Piano Concertos (Elizabeth Sombart, RPO, Pierre Vallet)
Год издания: 2015
Жанр: Classical
Издатель (лейбл): Resonnance
Продолжительность: 01:17:17
Наличие сканов: да
Исполнители:
Elizabeth Sombart - piano
Royal Philharmonic Orchestra
Conducted by Pierre Vallet
Треклист:
Frédéric Chopin
Piano Concerto No. 1, Op. 11
01. I. Allegro maestoso (21:17)
02. II. Larghetto (10:54)
03. III. Rondo: Vivace (10:24)
Piano Concerto No. 2, Op. 21
04. I. Maestoso (15:30)
05. II. Larghetto (10:04)
06. III. Allegro vivace (09:08)-Контейнер: FLAC (*.flac)
Тип рипа: tracks
Разрядность: 24bit / 96kHz
Количество каналов: 2.0-

Динамический диапазон - DR

foobar2000 1.3.2 / Замер динамического диапазона (DR) 1.1.1
Дата отчёта: 2015-09-08 23:55:25
--------------------------------------------------------------------------------
Анализ: Elizabeth Sombart / The Art Of Chopin: The Piano Concertos
--------------------------------------------------------------------------------
DR Пики RMS Продолжительность трека
--------------------------------------------------------------------------------
DR14 -0.01 дБ -19.43 дБ 21:17 01-Piano Concerto No. 1, Op. 11: I. Allegro maestoso
DR17 -2.72 дБ -25.03 дБ 10:54 02-Piano Concerto No. 1, Op. 11: II. Larghetto
DR15 -0.01 дБ -18.96 дБ 10:24 03-Piano Concerto No. 1, Op. 11: III. Rondo: Vivace
DR14 -0.01 дБ -19.26 дБ 15:30 04-Piano Concerto No. 2, Op. 21: I. Maestoso
DR15 -4.66 дБ -25.75 дБ 10:04 5/6-Piano Concerto No. 2, Op. 21: II. Larghetto
DR14 -0.01 дБ -18.82 дБ 9:08 06-Piano Concerto No. 2, Op. 21 III. Allegro vivace
--------------------------------------------------------------------------------
Количество треков: 6
Реальные значения DR: DR15
Частота: 96000 Гц
Каналов: 2
Разрядность: 24
Битрейт: 2421 кбит/с
Кодек: FLAC
================================================================================
[teatrix.ru].t22220.torrent 
Торрент: Зарегистрирован [ 2016-03-20 12:40 ] · 5A3763BCF93C95EFC470D589FA4D41B4ACEBFE74

Скачать .torrent

Скачать

14 KB

Статус: проверено
Скачан: 0 раз
Размер: 1.29 GB
terms.php



Быстрый ответ

Имя:

      
Для отправки сообщений необходимо включить JavaScript
Показать сообщения:    

Текущее время: 06-Дек 17:08

Часовой пояс: UTC + 3


Вы можете начинать темы
Вы можете отвечать на сообщения
Вы не можете редактировать свои сообщения
Вы не можете удалять свои сообщения
Вы не можете голосовать в опросах
Вы не можете прикреплять файлы к сообщениям
Вы можете скачивать файлы