(Opera, Vocal) Andre D'Arkor - Recital [sung in French] (Tenor Operatis Arias by Massenet, Boieldieu, Gounod, Delibes, Verdi, Godard, Thomas, Bazin, Meyerbeer, Rossini, Donizetti, Flotow), 1931-32 - studio recordings /1997, FLAC(tracks+.cue),lossless


 

[Цитировать]

André D'Arkor - Recital
Жанр: Opera, Vocal
Страна-производитель диска: Италия
Год издания диска: 1997
Издатель (лейбл): Phonographe/Nuova Era
Дата записи: 1931-1932
Аудиокодек: FLAC
Тип рипа: tracks+.cue
Битрейт аудио: lossless
Продолжительность: 69:11
Источник: релизер (Guillermo)
Исполнители:
André d'Arkor, tenor.

Лог создания рипа

Exact Audio Copy V1.0 beta 3 from 29. August 2011
EAC extraction logfile from 30. August 2015, 7:56
Artista desconocido / Título desconocido
Used drive : HL-DT-STDVDRAM GH24NSC0 Adapter: 3 ID: 0
Read mode : Secure
Utilize accurate stream : Yes
Defeat audio cache : Yes
Make use of C2 pointers : No
Read offset correction : 6
Overread into Lead-In and Lead-Out : No
Fill up missing offset samples with silence : Yes
Delete leading and trailing silent blocks : No
Null samples used in CRC calculations : Yes
Used interface : Native Win32 interface for Win NT & 2000
Gap handling : Appended to previous track
Used output format : User Defined Encoder
Selected bitrate : 768 kBit/s
Quality : High
Add ID3 tag : No
Command line compressor : C:\Program Files (x86)\Exact Audio Copy\FLAC\FLAC.EXE
Additional command line options : -8 -V -T "ARTIST=%artist%" -T "TITLE=%title%" -T "ALBUM=%albumtitle%" -T "DATE=%year%" -T "TRACKNUMBER=%tracknr%" -T "GENRE=%genre%" -T "PERFORMER=%albuminterpret%" -T "COMPOSER=%composer%" %haslyrics%--tag-from-file=LYRICS="%lyricsfile%"%haslyrics% -T "ALBUMARTIST=%albumartist%" -T "DISCNUMBER=%cdnumber%" -T "TOTALDISCS=%totalcds%" -T "TOTALTRACKS=%numtracks%" -T "COMMENT=%comment%" %source% -o %dest%
TOC of the extracted CD
Track | Start | Length | Start sector | End sector
---------------------------------------------------------
1 | 0:00.00 | 4:11.45 | 0 | 18869
2 | 4:11.45 | 4:06.47 | 18870 | 37366
3 | 8:18.17 | 4:21.43 | 37367 | 56984
4 | 12:39.60 | 3:03.37 | 56985 | 70746
5 | 15:43.22 | 2:13.32 | 70747 | 80753
6 | 17:56.54 | 2:44.43 | 80754 | 93096
7 | 20:41.22 | 3:22.40 | 93097 | 108286
8 | 24:03.62 | 4:28.48 | 108287 | 128434
9 | 28:32.35 | 3:09.27 | 128435 | 142636
10 | 31:41.62 | 3:55.10 | 142637 | 160271
11 | 35:36.72 | 3:52.73 | 160272 | 177744
12 | 39:29.70 | 2:20.07 | 177745 | 188251
13 | 41:50.02 | 3:01.55 | 188252 | 201881
14 | 44:51.57 | 4:08.15 | 201882 | 220496
15 | 48:59.72 | 2:41.48 | 220497 | 232619
16 | 51:41.45 | 2:55.42 | 232620 | 245786
17 | 54:37.12 | 3:55.43 | 245787 | 263454
18 | 58:32.55 | 4:27.42 | 263455 | 283521
19 | 63:00.22 | 3:08.00 | 283522 | 297621
20 | 66:08.22 | 3:00.73 | 297622 | 311194
Track 1
Filename f:\Users\Guillermo\Desktop\EAC convertidos\01 Pista01.wav
Pre-gap length 0:00:02.00
Peak level 97.4 %
Extraction speed 1.6 X
Track quality 100.0 %
Test CRC 36CD30FD
Copy CRC 36CD30FD
Copy OK
Track 2
Filename f:\Users\Guillermo\Desktop\EAC convertidos\02 Pista02.wav
Peak level 79.4 %
Extraction speed 1.5 X
Track quality 99.9 %
Test CRC 43BF9FC4
Copy CRC 43BF9FC4
Copy OK
Track 3
Filename f:\Users\Guillermo\Desktop\EAC convertidos\03 Pista03.wav
Peak level 80.1 %
Extraction speed 2.0 X
Track quality 100.0 %
Test CRC 12434E20
Copy CRC 12434E20
Copy OK
Track 4
Filename f:\Users\Guillermo\Desktop\EAC convertidos\04 Pista04.wav
Peak level 71.5 %
Extraction speed 2.0 X
Track quality 100.0 %
Test CRC 48F4B85B
Copy CRC 48F4B85B
Copy OK
Track 5
Filename f:\Users\Guillermo\Desktop\EAC convertidos\05 Pista05.wav
Peak level 71.9 %
Extraction speed 1.9 X
Track quality 100.0 %
Test CRC C46F65E5
Copy CRC C46F65E5
Copy OK
Track 6
Filename f:\Users\Guillermo\Desktop\EAC convertidos\06 Pista06.wav
Peak level 72.3 %
Extraction speed 2.1 X
Track quality 100.0 %
Test CRC CECDC2CA
Copy CRC CECDC2CA
Copy OK
Track 7
Filename f:\Users\Guillermo\Desktop\EAC convertidos\07 Pista07.wav
Peak level 51.1 %
Extraction speed 2.3 X
Track quality 100.0 %
Test CRC F8D7050E
Copy CRC F8D7050E
Copy OK
Track 8
Filename f:\Users\Guillermo\Desktop\EAC convertidos\08 Pista08.wav
Peak level 93.3 %
Extraction speed 2.1 X
Track quality 99.9 %
Test CRC 11178A91
Copy CRC 11178A91
Copy OK
Track 9
Filename f:\Users\Guillermo\Desktop\EAC convertidos\09 Pista09.wav
Peak level 74.7 %
Extraction speed 2.4 X
Track quality 100.0 %
Test CRC 14BE0D31
Copy CRC 14BE0D31
Copy OK
Track 10
Filename f:\Users\Guillermo\Desktop\EAC convertidos\10 Pista10.wav
Peak level 74.6 %
Extraction speed 2.7 X
Track quality 100.0 %
Test CRC C8FD0B15
Copy CRC C8FD0B15
Copy OK
Track 11
Filename f:\Users\Guillermo\Desktop\EAC convertidos\11 Pista11.wav
Peak level 78.7 %
Extraction speed 2.7 X
Track quality 100.0 %
Test CRC B8824E52
Copy CRC B8824E52
Copy OK
Track 12
Filename f:\Users\Guillermo\Desktop\EAC convertidos\12 Pista12.wav
Peak level 73.2 %
Extraction speed 2.5 X
Track quality 100.0 %
Test CRC 1A3BC554
Copy CRC 1A3BC554
Copy OK
Track 13
Filename f:\Users\Guillermo\Desktop\EAC convertidos\13 Pista13.wav
Peak level 73.2 %
Extraction speed 2.7 X
Track quality 100.0 %
Test CRC 4452B449
Copy CRC 4452B449
Copy OK
Track 14
Filename f:\Users\Guillermo\Desktop\EAC convertidos\14 Pista14.wav
Peak level 95.9 %
Extraction speed 3.0 X
Track quality 100.0 %
Test CRC A38CC181
Copy CRC A38CC181
Copy OK
Track 15
Filename f:\Users\Guillermo\Desktop\EAC convertidos\15 Pista15.wav
Peak level 74.2 %
Extraction speed 2.8 X
Track quality 100.0 %
Test CRC A22AACC4
Copy CRC A22AACC4
Copy OK
Track 16
Filename f:\Users\Guillermo\Desktop\EAC convertidos\16 Pista16.wav
Peak level 65.7 %
Extraction speed 2.4 X
Track quality 99.8 %
Test CRC E649585E
Copy CRC E649585E
Copy OK
Track 17
Filename f:\Users\Guillermo\Desktop\EAC convertidos\17 Pista17.wav
Peak level 94.0 %
Extraction speed 3.2 X
Track quality 100.0 %
Test CRC 727CEF2E
Copy CRC 727CEF2E
Copy OK
Track 18
Filename f:\Users\Guillermo\Desktop\EAC convertidos\18 Pista18.wav
Peak level 76.1 %
Extraction speed 3.3 X
Track quality 100.0 %
Test CRC DBEA2B2C
Copy CRC DBEA2B2C
Copy OK
Track 19
Filename f:\Users\Guillermo\Desktop\EAC convertidos\19 Pista19.wav
Peak level 56.0 %
Extraction speed 2.6 X
Track quality 99.8 %
Test CRC 0FC6AFA6
Copy CRC 0FC6AFA6
Copy OK
Track 20
Filename f:\Users\Guillermo\Desktop\EAC convertidos\20 Pista20.wav
Peak level 60.5 %
Extraction speed 3.2 X
Track quality 100.0 %
Test CRC 5932257C
Copy CRC 5932257C
Copy OK
No errors occurred
End of status report
==== Log checksum 5E13ED3B1103557E1E45CFEB61B78850235CDA43E03104D1CFD27E15B9BD9584 ====

Содержание индексной карты (.CUE)

REM DISCID 0D103514
REM COMMENT "ExactAudioCopy v1.0b3"
FILE "01 Pista01.wav" WAVE
TRACK 01 AUDIO
INDEX 01 00:00:00
FILE "02 Pista02.wav" WAVE
TRACK 02 AUDIO
INDEX 01 00:00:00
FILE "03 Pista03.wav" WAVE
TRACK 03 AUDIO
INDEX 01 00:00:00
FILE "04 Pista04.wav" WAVE
TRACK 04 AUDIO
INDEX 01 00:00:00
FILE "05 Pista05.wav" WAVE
TRACK 05 AUDIO
INDEX 01 00:00:00
FILE "06 Pista06.wav" WAVE
TRACK 06 AUDIO
INDEX 01 00:00:00
FILE "07 Pista07.wav" WAVE
TRACK 07 AUDIO
INDEX 01 00:00:00
FILE "08 Pista08.wav" WAVE
TRACK 08 AUDIO
INDEX 01 00:00:00
FILE "09 Pista09.wav" WAVE
TRACK 09 AUDIO
INDEX 01 00:00:00
FILE "10 Pista10.wav" WAVE
TRACK 10 AUDIO
INDEX 01 00:00:00
FILE "11 Pista11.wav" WAVE
TRACK 11 AUDIO
INDEX 01 00:00:00
FILE "12 Pista12.wav" WAVE
TRACK 12 AUDIO
INDEX 01 00:00:00
FILE "13 Pista13.wav" WAVE
TRACK 13 AUDIO
INDEX 01 00:00:00
FILE "14 Pista14.wav" WAVE
TRACK 14 AUDIO
INDEX 01 00:00:00
FILE "15 Pista15.wav" WAVE
TRACK 15 AUDIO
INDEX 01 00:00:00
FILE "16 Pista16.wav" WAVE
TRACK 16 AUDIO
INDEX 01 00:00:00
FILE "17 Pista17.wav" WAVE
TRACK 17 AUDIO
INDEX 01 00:00:00
FILE "18 Pista18.wav" WAVE
TRACK 18 AUDIO
INDEX 01 00:00:00
FILE "19 Pista19.wav" WAVE
TRACK 19 AUDIO
INDEX 01 00:00:00
FILE "20 Pista20.wav" WAVE
TRACK 20 AUDIO
INDEX 01 00:00:00

Треклист

François-Adrien Boïeldieu - La Dame blanche:
Ah! quel plaisir d’être soldat / Columbia 1931
Viens, gentille dame / Columbia 1931
Gioachino Rossini - Guillaume Tell: Asile héréditaire / Columbia 1931
Gaetano Donizetti - L’Elisire d’amore : Une furtive larme / Columbia 1931
Giacomo Meyerbeer - Les Huguenots: Plus blanche que la blanche hermine / Columbia 1931
Friederich von Flotow - Martha: Lorsqu’à mes yeux / Columbia 1931
Giuseppe Verdi - Rigoletto:
Qu’une belle / Columbia 1931
Comme la plume au vent / Columbia 1931
Charles Gounod - Mireille: Anges du paradis / Columbia 1932
Charles Thomas - Mignon: Elle ne croyait pas / Columbia 1931
Leo Delibes - Lakmé: Ah! Viens dans la forêt profonde / Columbia 1932
Jules Massenet:
Manon: En fermant les yeux / Columbia 1932
Werther: Pourquoi me reveiller
Benjamin Godard - Jocelyn: Cachés dans cet asil / Columbia 1931
Francois Bazin - Maître Pathelin: Je pense à vous / Columbia 1931
Giacomo Puccini - La Bohème: Que cette main est froide / Columbia 1931
Bach-Gounod - Ave Maria / Columbia 1931
Cesar Franck - Panis Angelicus / Columbia 1931



Показать сообщения:    

Текущее время: 04-Дек 13:16

Часовой пояс: UTC + 3


Вы не можете начинать темы
Вы не можете отвечать на сообщения
Вы не можете редактировать свои сообщения
Вы не можете удалять свои сообщения
Вы не можете голосовать в опросах
Вы не можете прикреплять файлы к сообщениям
Вы не можете скачивать файлы