(Choral, Vocal) Orff • Carmina Burana (Sidhom, Graham-Hall, Archibald - Royal PO, Cooke) - Gorecki • Symphony Of Sorrowful Songs • 3 Pieces In Old Style (Gritton - Royal PO, Симонов/Simonov) - 2000, APE (image+.cue) lossless


Статистика раздачи [Обновить пиров]
Размер:  512 MB   |    Зарегистрирован:  8 месяцев 15 дней   |    Скачан:  0 раз

Полного источника не было: Никогда

 
   
 
 
 

[Цитировать]

Carl Orff - Carmina Burana • Henryk Górecki - Symphony No. 3, Symphony Of Sorrowful Songs
Жанр: Choral, Vocal
Страна-производитель диска: Eu
Год издания диска: 2000
Издатель (лейбл): Brilliant Classics
Номер по каталогу: 6081
Дата записи: 2000
Аудиокодек: APE
Тип рипа: image+.cue
Битрейт аудио: lossless
Продолжительность: 64'25+63'17
Источник: собственный рип
Наличие сканов в содержимом раздачи: да
Треклист / Исполнители:Orff - Carmina Burana
Fortuna Imperatrix Mundi (Fortuna, Empress Of The World)
1. O Fortuna (Choir)
2. Fortune Plango Vulnera (Choir)
Primo Vere (Springtime)
3. Veris Leta Facis (Small Choir)
4. Omnia Sol Temperat (Baritone Solo)
5. Ecce Gratum (Choir)
Uf Dem Anger (On The Green)
6. Tanz (Orchestra)
7. Silva Nobilis (Choir)
8. Chramer Gip Die Varwe Mir (Choir)
9. Reie (Round Dance) - Swaz Hie Gat Umbe (Choir) - Chume, Chum Geselle Min (Choir)
10. Were Diu Werlt Alle Min (Choir)
In Taberna (In The Tavern)
11. Estuans Interius (Baritone Solo)
12. Olim Lacus Colueram (Tenor Solo, Choir)
13. Ego Sum Abbas (Baritone Solo, Choir)
14. In Taberna Quando Sumus (Choir)
Cours D'Amour (Court Of Love)
15. Amor Volat Undique (Soprano Solo, Boys Choir)
16. Dies, Nox Et Omnia (Baritone Solo)
17. Stetit Puella (Soprano Solo)
18. Circa Mea Pectora (Baritone Solo, Choir)
19. Si Puer Cum Puellula (Soli, Tenor, Baritone, Bass)
20. Veni, Veni, Venias (Double Choir)
21. In Trituna (Soprano Solo)
22. Tempus Est Iocundum (Soprano/Baritone Solo, Choir & Boys Choir)
23. Dulcissime (Soprano Solo)
Blanziflor Et Helena (Blanchefleur And Helen)
24. Ave Formosissima (Choir)
Fortuna Imperatrix Mundi (Fortuna, Empress Of The World)
25. O Fortuna (Choir)
Peter Sidhom, Baritone
John Graham-Hall, Countertenor
Ann Archibald, Soprano
The Royal Choral Society
The Choir Of The Temple Church
Royal Philharmonic Orchestra
Richard Cooke
Górecki - Symphony No. 3 • Three Pieces In Old Style
Symphony No. 3, Symphony Of Sorrowful Songs
1. Lento - Sostenuto Tranquillo
2. Lento E Largo - Tranquillisimo
3. Lento - Cantabile Semplice
Three Pieces In Old Style
4. Movement I
5. Movement II
6. Movement III
Susan Gritton, Soprano
Royal Philharmonic Orchestra
Yuri Simonov

Лог создания рипа

CD1

Exact Audio Copy V1.0 beta 6 from 9. April 2015
EAC extraction logfile from 4. September 2015, 21:26
Archibald, Graham-Hall, Sidhom_Temple Church Boys Choir_Royal PO / Orff - Carmina Burana, Cooke
Used drive : TSSTcorpCDDVDW SE-208AB Adapter: 1 ID: 2
Read mode : Secure
Utilize accurate stream : Yes
Defeat audio cache : Yes
Make use of C2 pointers : No
Read offset correction : 6
Overread into Lead-In and Lead-Out : No
Fill up missing offset samples with silence : Yes
Delete leading and trailing silent blocks : No
Null samples used in CRC calculations : Yes
Used interface : Native Win32 interface for Win NT & 2000
Used output format : Monkey's Audio Lossless Encoder
Selected bitrate : High Lossless Compression
Quality : High
Add ID3 tag : Yes
Command line compressor : C:\Program Files (x86)\Exact Audio Copy\MAC\MAC.exe
TOC of the extracted CD
Track | Start | Length | Start sector | End sector
---------------------------------------------------------
1 | 0:00.00 | 2:32.11 | 0 | 11410
2 | 2:32.11 | 2:42.47 | 11411 | 23607
3 | 5:14.58 | 4:01.30 | 23608 | 41712
4 | 9:16.13 | 1:59.20 | 41713 | 50657
5 | 11:15.33 | 2:27.70 | 50658 | 61752
6 | 13:43.28 | 1:43.43 | 61753 | 69520
7 | 15:26.71 | 3:25.44 | 69521 | 84939
8 | 18:52.40 | 3:42.66 | 84940 | 101655
9 | 22:35.31 | 5:15.33 | 101656 | 125313
10 | 27:50.64 | 0:54.37 | 125314 | 129400
11 | 28:45.26 | 2:24.41 | 129401 | 140241
12 | 31:09.67 | 3:22.51 | 140242 | 155442
13 | 34:32.43 | 1:45.31 | 155443 | 163348
14 | 36:17.74 | 3:02.50 | 163349 | 177048
15 | 39:20.49 | 1:52.57 | 177049 | 185505
16 | 41:13.31 | 1:44.66 | 185506 | 193371
17 | 42:58.22 | 2:18.50 | 193372 | 203771
18 | 45:16.72 | 1:55.03 | 203772 | 212399
19 | 47:12.00 | 2:11.62 | 212400 | 222286
20 | 49:23.62 | 0:55.15 | 222287 | 226426
21 | 50:19.02 | 0:59.02 | 226427 | 230853
22 | 51:18.04 | 2:13.32 | 230854 | 240860
23 | 53:31.36 | 2:58.43 | 240861 | 254253
24 | 56:30.04 | 1:59.27 | 254254 | 263205
25 | 58:29.31 | 2:33.33 | 263206 | 274713
Range status and errors
Selected range
Filename D:\EAC\Orff - Carmina Burana, Cooke.wav
Peak level 96.6 %
Extraction speed 4.5 X
Range quality 100.0 %
Test CRC 0B96834C
Copy CRC 0B96834C
Copy OK
No errors occurred
AccurateRip summary
Track 1 accurately ripped (confidence 19) [F7A40025] (AR v2)
Track 2 accurately ripped (confidence 19) [06A2B9D0] (AR v2)
Track 3 accurately ripped (confidence 19) [1A1EE55E] (AR v2)
Track 4 accurately ripped (confidence 19) [A42026D7] (AR v2)
Track 5 accurately ripped (confidence 19) [D436D7C4] (AR v2)
Track 6 accurately ripped (confidence 19) [7E408FE7] (AR v2)
Track 7 accurately ripped (confidence 18) [3E5B5655] (AR v2)
Track 8 accurately ripped (confidence 18) [E07C9249] (AR v2)
Track 9 accurately ripped (confidence 18) [60FC62A4] (AR v2)
Track 10 accurately ripped (confidence 19) [740ABBB1] (AR v2)
Track 11 accurately ripped (confidence 19) [5E099EE1] (AR v2)
Track 12 accurately ripped (confidence 18) [6E7F627A] (AR v2)
Track 13 accurately ripped (confidence 19) [26B3F71A] (AR v2)
Track 14 accurately ripped (confidence 19) [04C6DDF0] (AR v2)
Track 15 accurately ripped (confidence 19) [3B2E391F] (AR v2)
Track 16 accurately ripped (confidence 19) [966C4EC6] (AR v2)
Track 17 accurately ripped (confidence 19) [496A4998] (AR v2)
Track 18 accurately ripped (confidence 19) [56548E90] (AR v2)
Track 19 accurately ripped (confidence 19) [A5BCF64E] (AR v2)
Track 20 accurately ripped (confidence 19) [D740652A] (AR v2)
Track 21 accurately ripped (confidence 19) [ADB8940A] (AR v2)
Track 22 accurately ripped (confidence 19) [0F162BB0] (AR v2)
Track 23 accurately ripped (confidence 19) [04957CD9] (AR v2)
Track 24 accurately ripped (confidence 19) [F93DB69D] (AR v2)
Track 25 accurately ripped (confidence 19) [EF6B341D] (AR v2)
All tracks accurately ripped
End of status report
---- CUETools DB Plugin V2.1.6
[CTDB TOCID: ak0fHW1NQkdtXG6Jk71t00FzUWo-] found
Submit result: ak0fHW1NQkdtXG6Jk71t00FzUWo- has been confirmed
Track | CTDB Status
1 | (31/32) Accurately ripped
2 | (32/32) Accurately ripped
3 | (32/32) Accurately ripped
4 | (32/32) Accurately ripped
5 | (32/32) Accurately ripped
6 | (32/32) Accurately ripped
7 | (32/32) Accurately ripped
8 | (32/32) Accurately ripped
9 | (32/32) Accurately ripped
10 | (32/32) Accurately ripped
11 | (32/32) Accurately ripped
12 | (32/32) Accurately ripped
13 | (32/32) Accurately ripped
14 | (32/32) Accurately ripped
15 | (32/32) Accurately ripped
16 | (32/32) Accurately ripped
17 | (32/32) Accurately ripped
18 | (32/32) Accurately ripped
19 | (32/32) Accurately ripped
20 | (32/32) Accurately ripped
21 | (32/32) Accurately ripped
22 | (32/32) Accurately ripped
23 | (32/32) Accurately ripped
24 | (32/32) Accurately ripped
25 | (32/32) Accurately ripped
==== Log checksum C825FD13E989CCC50A02E742BEEE568379C5268D4D80954DAF68C74263C0128F ====

CD2

Exact Audio Copy V1.0 beta 6 from 9. April 2015
EAC extraction logfile from 4. September 2015, 21:46
Susan Gritton (soprano)_Royal Philharmonic Orchestra, Yuri Simonov / Górecki • Symphony No.3 • 3 Pieces in Old Style
Used drive : TS8XDVDSTRANSCEND Adapter: 1 ID: 1
Read mode : Secure
Utilize accurate stream : Yes
Defeat audio cache : Yes
Make use of C2 pointers : No
Read offset correction : 6
Overread into Lead-In and Lead-Out : No
Fill up missing offset samples with silence : Yes
Delete leading and trailing silent blocks : No
Null samples used in CRC calculations : Yes
Used interface : Native Win32 interface for Win NT & 2000
Used output format : Monkey's Audio Lossless Encoder
Selected bitrate : High Lossless Compression
Quality : High
Add ID3 tag : Yes
Command line compressor : C:\Program Files (x86)\Exact Audio Copy\MAC\MAC.exe
TOC of the extracted CD
Track | Start | Length | Start sector | End sector
---------------------------------------------------------
1 | 0:00.00 | 27:57.23 | 0 | 125797
2 | 27:57.23 | 9:22.02 | 125798 | 167949
3 | 37:19.25 | 16:07.45 | 167950 | 240519
4 | 53:26.70 | 3:00.32 | 240520 | 254051
5 | 56:27.27 | 1:57.02 | 254052 | 262828
6 | 58:24.29 | 4:50.73 | 262829 | 284651
Range status and errors
Selected range
Filename D:\EAC\Górecki • Symphony No.3 • 3 Pieces in Old Style.wav
Peak level 90.4 %
Extraction speed 1.9 X
Range quality 100.0 %
Test CRC 10BEBAD4
Copy CRC 10BEBAD4
Copy OK
No errors occurred
AccurateRip summary
Track 1 accurately ripped (confidence 2) [9CF445AE] (AR v2)
Track 2 accurately ripped (confidence 2) [291DE441] (AR v2)
Track 3 accurately ripped (confidence 2) [E269BEB3] (AR v2)
Track 4 accurately ripped (confidence 2) [5F92E522] (AR v2)
Track 5 accurately ripped (confidence 2) [8C752416] (AR v2)
Track 6 accurately ripped (confidence 2) [940E9DC4] (AR v2)
All tracks accurately ripped
End of status report
---- CUETools DB Plugin V2.1.6
[CTDB TOCID: 613A75XSBkr17z5cBmpwt80clv0-] found
Submit result: unrecognized or virtual drive
Track | CTDB Status
1 | (16/16) Accurately ripped
2 | (16/16) Accurately ripped
3 | (16/16) Accurately ripped
4 | (16/16) Accurately ripped
5 | (16/16) Accurately ripped
6 | (16/16) Accurately ripped
==== Log checksum CBACE362DDA7F36B61F5E793688CECEF45810BB2E084A4AB21C273300A25DC96 ====

Содержание индексной карты (.CUE)

CD1

REM GENRE Opera
REM DATE 2000
REM DISCID 660E4E19
REM COMMENT "ExactAudioCopy v1.0b6"
PERFORMER "Archibald, Graham-Hall, Sidhom_Temple Church Boys Choir_Royal PO"
TITLE "Orff - Carmina Burana, Cooke"
FILE "Orff - Carmina Burana, Cooke.ape" WAVE
TRACK 01 AUDIO
TITLE "Fortuna, Empress Of The World - I O Fortuna (Choir)"
PERFORMER "Archibald, Graham-Hall, Sidhom_Temple Church Boys Choir_Royal PO"
ISRC KYCC29900434
INDEX 01 00:00:00
TRACK 02 AUDIO
TITLE "Fortuna, Empress Of The World - II Fortune Plango Vulnera (Choir)"
PERFORMER "Archibald, Graham-Hall, Sidhom_Temple Church Boys Choir_Royal PO"
ISRC KYCC29900435
INDEX 01 02:32:11
TRACK 03 AUDIO
TITLE "Springtime - I Veris Leta Facies (Small Choir)"
PERFORMER "Archibald, Graham-Hall, Sidhom_Temple Church Boys Choir_Royal PO"
ISRC KYCC29900436
INDEX 01 05:14:58
TRACK 04 AUDIO
TITLE "Springtime - II Omnia Sol Temperat (Baritone Solo)"
PERFORMER "Archibald, Graham-Hall, Sidhom_Temple Church Boys Choir_Royal PO"
ISRC KYCC29900437
INDEX 01 09:16:13
TRACK 05 AUDIO
TITLE "Springtime - III Ecce Gratum (Choir)"
PERFORMER "Archibald, Graham-Hall, Sidhom_Temple Church Boys Choir_Royal PO"
ISRC KYCC29900438
INDEX 01 11:15:33
TRACK 06 AUDIO
TITLE "On The Green - I Tanz (Orchestra)"
PERFORMER "Archibald, Graham-Hall, Sidhom_Temple Church Boys Choir_Royal PO"
ISRC KYCC29900439
INDEX 01 13:43:28
TRACK 07 AUDIO
TITLE "On The Green - II Silva Nobilis (Choir)"
PERFORMER "Archibald, Graham-Hall, Sidhom_Temple Church Boys Choir_Royal PO"
ISRC KYCC29900440
INDEX 01 15:26:71
TRACK 08 AUDIO
TITLE "On The Green - III Chramer, Gip Die Varwe Mir (Choir)"
PERFORMER "Archibald, Graham-Hall, Sidhom_Temple Church Boys Choir_Royal PO"
ISRC KYCC29900441
INDEX 01 18:52:40
TRACK 09 AUDIO
TITLE "On The Green - IV Reie (Round Dance)"
PERFORMER "Archibald, Graham-Hall, Sidhom_Temple Church Boys Choir_Royal PO"
ISRC KYCC29900442
INDEX 01 22:35:31
TRACK 10 AUDIO
TITLE "On The Green - V Were Diu Werlt Alle Min (Choir)"
PERFORMER "Archibald, Graham-Hall, Sidhom_Temple Church Boys Choir_Royal PO"
ISRC KYCC29900443
INDEX 01 27:50:64
TRACK 11 AUDIO
TITLE "In The Tavern - I Estuans Interius (Baritone Solo)"
PERFORMER "Archibald, Graham-Hall, Sidhom_Temple Church Boys Choir_Royal PO"
ISRC KYCC29900444
INDEX 00 28:44:22
INDEX 01 28:45:26
TRACK 12 AUDIO
TITLE "In The Tavern - II Olim Lacus Colueram (Tenor Solo, Choir)"
PERFORMER "Archibald, Graham-Hall, Sidhom_Temple Church Boys Choir_Royal PO"
ISRC KYCC29900445
INDEX 01 31:09:67
TRACK 13 AUDIO
TITLE "In The Tavern - III Ego Sum Abbas (Baritone Solo, Choir)"
PERFORMER "Archibald, Graham-Hall, Sidhom_Temple Church Boys Choir_Royal PO"
ISRC KYCC29900446
INDEX 01 34:32:43
TRACK 14 AUDIO
TITLE "In The Tavern - IV In Taberna Quando Sumus (Choir)"
PERFORMER "Archibald, Graham-Hall, Sidhom_Temple Church Boys Choir_Royal PO"
ISRC KYCC29900447
INDEX 01 36:17:74
TRACK 15 AUDIO
TITLE "Court Of Love - I Amor Volat Undique (Soprano Solo, Boys Choir)"
PERFORMER "Archibald, Graham-Hall, Sidhom_Temple Church Boys Choir_Royal PO"
ISRC KYCC29900448
INDEX 00 39:19:07
INDEX 01 39:20:49
TRACK 16 AUDIO
TITLE "Court Of Love - II Dies, Nox Et Omnia (Baritone Solo)"
PERFORMER "Archibald, Graham-Hall, Sidhom_Temple Church Boys Choir_Royal PO"
ISRC KYCC29900449
INDEX 01 41:13:31
TRACK 17 AUDIO
TITLE "Court Of Love - III Stetit Puella (Soprano Solo)"
PERFORMER "Archibald, Graham-Hall, Sidhom_Temple Church Boys Choir_Royal PO"
ISRC KYCC29900450
INDEX 01 42:58:22
TRACK 18 AUDIO
TITLE "Court Of Love - IV Circa Mea Pectora (Baritone Solo, Choir)"
PERFORMER "Archibald, Graham-Hall, Sidhom_Temple Church Boys Choir_Royal PO"
ISRC KYCC29900451
INDEX 01 45:16:72
TRACK 19 AUDIO
TITLE "Court Of Love - V Si Puer Cum Puellula (Soli, Tenor, Baritone, Bass)"
PERFORMER "Archibald, Graham-Hall, Sidhom_Temple Church Boys Choir_Royal PO"
ISRC KYCC29900452
INDEX 01 47:12:00
TRACK 20 AUDIO
TITLE "Court Of Love - VI Veni, Veni, Venias (Double Choir)"
PERFORMER "Archibald, Graham-Hall, Sidhom_Temple Church Boys Choir_Royal PO"
ISRC KYCC29900453
INDEX 01 49:23:62
TRACK 21 AUDIO
TITLE "Court Of Love - VII In Trutina (Soprano Solo)"
PERFORMER "Archibald, Graham-Hall, Sidhom_Temple Church Boys Choir_Royal PO"
ISRC KYCC29900454
INDEX 01 50:19:02
TRACK 22 AUDIO
TITLE "Court Of Love - VIII Tempus Est Iocundum (Soprano+Baritone Solo, Choir)"
PERFORMER "Archibald, Graham-Hall, Sidhom_Temple Church Boys Choir_Royal PO"
ISRC KYCC29900455
INDEX 00 51:17:23
INDEX 01 51:18:04
TRACK 23 AUDIO
TITLE "Court Of Love - IX Dulcissimi (Soprano Solo)"
PERFORMER "Archibald, Graham-Hall, Sidhom_Temple Church Boys Choir_Royal PO"
ISRC KYCC29900456
INDEX 01 53:31:36
TRACK 24 AUDIO
TITLE "Blanchefleur And Helen - Ave Formossima (Choir)"
PERFORMER "Archibald, Graham-Hall, Sidhom_Temple Church Boys Choir_Royal PO"
ISRC KYCC29900457
INDEX 01 56:30:04
TRACK 25 AUDIO
TITLE "Fortuna, Empress Of The World - O Fortuna (Choir)"
PERFORMER "Archibald, Graham-Hall, Sidhom_Temple Church Boys Choir_Royal PO"
ISRC KYCC29900458
INDEX 01 58:29:31

CD2

REM GENRE Orchestral
REM DATE 1996
REM DISCID 540ED306
REM COMMENT "ExactAudioCopy v1.0b6"
PERFORMER "Susan Gritton (soprano)_Royal Philharmonic Orchestra, Yuri Simonov"
TITLE "Górecki • Symphony No.3 • 3 Pieces in Old Style"
FILE "Górecki • Symphony No.3 • 3 Pieces in Old Style.ape" WAVE
TRACK 01 AUDIO
TITLE "Górecki.Symphony No.3:I. Lento–sostenuto tranquillo ma cantabil"
PERFORMER "Susan Gritton (soprano)_Royal Philharmonic Orchestra, Yuri Simonov"
ISRC KYCC29900293
INDEX 01 00:00:00
TRACK 02 AUDIO
TITLE "Górecki.Symphony No.3:II. Lento e largo–tranquillissimo–cantabillissimo–dolci..."
PERFORMER "Susan Gritton (soprano)_Royal Philharmonic Orchestra, Yuri Simonov"
ISRC KYCC29900294
INDEX 00 27:56:21
INDEX 01 27:57:23
TRACK 03 AUDIO
TITLE "Górecki.Symphony No.3:III. Lento–cantabile semplice"
PERFORMER "Susan Gritton (soprano)_Royal Philharmonic Orchestra, Yuri Simonov"
ISRC KYCC29900295
INDEX 00 37:18:20
INDEX 01 37:19:25
TRACK 04 AUDIO
TITLE "Górecki.Three Pieces in Old Style:I. Movement one"
PERFORMER "Susan Gritton (soprano)_Royal Philharmonic Orchestra, Yuri Simonov"
ISRC KYCC29900296
INDEX 00 53:17:59
INDEX 01 53:26:70
TRACK 05 AUDIO
TITLE "Górecki.Three Pieces in Old Style:II. Movement two"
PERFORMER "Susan Gritton (soprano)_Royal Philharmonic Orchestra, Yuri Simonov"
ISRC KYCC29900297
INDEX 00 56:25:22
INDEX 01 56:27:27
TRACK 06 AUDIO
TITLE "Górecki.Three Pieces in Old Style:III. Movement three"
PERFORMER "Susan Gritton (soprano)_Royal Philharmonic Orchestra, Yuri Simonov"
ISRC KYCC29900298
INDEX 00 58:21:13
INDEX 01 58:24:29
[teatrix.ru].t22223.torrent 
Торрент: Зарегистрирован [ 2016-03-20 12:40 ] · 4A13B78E9AB00A5A107797E74F2D2B0EFA39B4E1

Скачать .torrent

Скачать

21 KB

Статус: проверено
Скачан: 0 раз
Размер: 512 MB
terms.php



Быстрый ответ

Имя:

      
Для отправки сообщений необходимо включить JavaScript
Показать сообщения:    

Текущее время: 05-Дек 05:31

Часовой пояс: UTC + 3


Вы можете начинать темы
Вы можете отвечать на сообщения
Вы не можете редактировать свои сообщения
Вы не можете удалять свои сообщения
Вы не можете голосовать в опросах
Вы не можете прикреплять файлы к сообщениям
Вы можете скачивать файлы