Гиппопотамы / Hipopotamy (Пётр Думала / Piotr Dumała) [2014, Польша, авторская анимация, WEBRip]


 

[Цитировать]

Гиппопотамы / Hipopotamy
Страна: Польша
Жанр: авторская анимация
Год выпуска: 2014
Продолжительность: 00:12:34
Перевод: не требуется
Cубтитры: нет
Режиссёр: Пётр Думала / Piotr Dumała
Композитор: Александр Баланеску / Alexander Balanescu
Описание: Несколько обнажённых женщин с детьми на руках купаются в водоёме. Вдруг появляются несколько мужчин и начинают грязно домогаться их с упорством гиппопотамов...
Неприятное зрелище, рисующее мрачную картину деградирующей человеческой цивилизации.
Доп. информация: 15 наград международных фестивалей
Качество видео: WEBRip
Формат видео: AVI
Видео: 957 kbps, 720х384 (1.85:1), 24.000 fps, MPEG-4 Visual (XviD)
Аудио: 224 kbps, 48.0 kHz, 2 channels, MPEG Audio (MP3)

MediaInfo

General
Complete name : Hipopotamy (2014).avi
Format : AVI
Format/Info : Audio Video Interleave
File size : 107 MiB
Duration : 12mn 34s
Overall bit rate : 1 191 Kbps
Writing library : VirtualDub build 35491/release
Video
ID : 0
Format : MPEG-4 Visual
Format profile : Advanced Simple@L5
Format settings, BVOP : 2
Format settings, QPel : No
Format settings, GMC : No warppoints
Format settings, Matrix : Default (H.263)
Codec ID : XVID
Codec ID/Hint : XviD
Duration : 12mn 34s
Bit rate : 957 Kbps
Width : 720 pixels
Height : 384 pixels
Display aspect ratio : 1.85:1
Frame rate : 24.000 fps
Color space : YUV
Chroma subsampling : 4:2:0
Bit depth : 8 bits
Scan type : Progressive
Compression mode : Lossy
Bits/(Pixel*Frame) : 0.144
Stream size : 86.1 MiB (80%)
Writing library : XviD 64
Audio
ID : 1
Format : MPEG Audio
Format version : Version 1
Format profile : Layer 3
Mode : Joint stereo
Codec ID : 55
Codec ID/Hint : MP3
Duration : 12mn 34s
Bit rate mode : Constant
Bit rate : 224 Kbps
Channel(s) : 2 channels
Sampling rate : 48.0 KHz
Compression mode : Lossy
Stream size : 20.1 MiB (19%)
Alignment : Split accross interleaves
Interleave, duration : 42 ms (1.00 video frame)
Interleave, preload duration : 500 ms

Скриншот c названием фильма

Скриншоты




Показать сообщения:    

Текущее время: 07-Дек 23:18

Часовой пояс: UTC + 3


Вы не можете начинать темы
Вы не можете отвечать на сообщения
Вы не можете редактировать свои сообщения
Вы не можете удалять свои сообщения
Вы не можете голосовать в опросах
Вы не можете прикреплять файлы к сообщениям
Вы не можете скачивать файлы