Адреналин / Adrenaline (Анита Ассаль / Anita Assal, Бартельми Бомпар / Barthélémy Bompard) [1990, Франция, ужасы, VHSRip] AVO (Штейн)


Статистика раздачи [Обновить пиров]
Размер:  1.07 GB   |    Зарегистрирован:  8 месяцев 21 день   |    Скачан:  0 раз

Полного источника не было: Никогда

 
   
 
 
 

[Цитировать]

Адреналин / Adrenaline
Страна: Франция
Жанр: ужасы
Год выпуска: 1990
Продолжительность: 01:10:57
Перевод: Авторский (одноголосый закадровый) Штейн
Cубтитры: нет
Режиссер: Анита Ассаль / Anita Assal, Бартельми Бомпар / Barthélémy Bompard и др.
В ролях: Жан-Мари Маддедду, Филипп Доррисон, Ян Пикер, Филипп Бомпар, Ален Робак, Жан-Мар Туссан, Хьюго Верлом
Описание: Аннотация от alenavova
Причудливый монтаж различных ужасных историй, мало связанных между собой. Снятые в цвете и черно-белые, они показывают садистские преступления на любой вкус: смерть в кабине автомобиля, обрушившийся потолок, отрубленные уши, ампутация руки у живой жертвы, закопанный в землю муж и его последнее желание, задушенная женщина убийцей мух, телеобразы, вторгающиеся в дом двух обывателей, механический паук, стреляющий стальными стрелами в глаза зрителей, мазохист-боксер и т.д. Стильная картина иронически дает галерею новелл о самоубийцах и садистах.
Доп. информация: Оцифровка VHS (личный архив) и получение VHSRip alenavova
Сэмпл: https://yadi.sk/i/c6OsiO1pizKwM
Качество видео: VHSRip
Формат видео: AVI
Видео: 640x480 (1.33:1), 25 fps, XviD build 50 ~1966 kbps avg, 0.26 bit/pixel
Аудио: 48 kHz, AC3 Dolby Digital, 2/0 (L,R) ch, ~192 kbps

MediaInfo

Адреналин - Adrenaline (by alenavova).avi
Format : AVI
Format/Info : Audio Video Interleave
File size : 1.07 GiB
Duration : 1h 10mn
Overall bit rate : 2 169 Kbps
Movie name : Адреналин - Adrenaline (by alenavova)
Director : by alenavova
Writing application : VirtualDubMod 1.5.10.3 | www.virtualdub-fr.org || (build 2550/release)
Copyright : Edich2
Comment : RuTracker.org
Video
ID : 0
Format : MPEG-4 Visual
Format profile : Advanced Simple@L5
Format settings, BVOP : 1
Format settings, QPel : No
Format settings, GMC : No warppoints
Format settings, Matrix : Default (MPEG)
Codec ID : XVID
Codec ID/Hint : XviD
Duration : 1h 10mn
Bit rate : 1 967 Kbps
Width : 640 pixels
Height : 480 pixels
Display aspect ratio : 4:3
Frame rate : 25.000 fps
Color space : YUV
Chroma subsampling : 4:2:0
Bit depth : 8 bits
Scan type : Progressive
Compression mode : Lossy
Bits/(Pixel*Frame) : 0.256
Stream size : 998 MiB (91%)
Writing library : XviD 1.2.1 (UTC 2008-12-04)
Audio
ID : 1
Format : AC-3
Format/Info : Audio Coding 3
Mode extension : CM (complete main)
Format settings, Endianness : Big
Codec ID : 2000
Duration : 1h 10mn
Bit rate mode : Constant
Bit rate : 192 Kbps
Channel(s) : 2 channels
Channel positions : Front: L R
Sampling rate : 48.0 KHz
Bit depth : 16 bits
Compression mode : Lossy
Stream size : 97.4 MiB (9%)
Alignment : Split accross interleaves
Interleave, duration : 40 ms (1.00 video frame)
Interleave, preload duration : 500 ms

Скриншоты


[teatrix.ru].t22228.torrent 
Торрент: Зарегистрирован [ 2016-03-20 12:40 ] · 685DC47E0A010F08DEC7E5A42ACCC6D6F4C670C4

Скачать .torrent

Скачать

11 KB

Статус: проверено
Скачан: 0 раз
Размер: 1.07 GB
terms.php



Быстрый ответ

Имя:

      
Для отправки сообщений необходимо включить JavaScript
Показать сообщения:    

Текущее время: 10-Дек 17:37

Часовой пояс: UTC + 3


Вы можете начинать темы
Вы можете отвечать на сообщения
Вы не можете редактировать свои сообщения
Вы не можете удалять свои сообщения
Вы не можете голосовать в опросах
Вы не можете прикреплять файлы к сообщениям
Вы можете скачивать файлы