(Orchestral) Anton Bruckner - Symphonie Nr.4 »Romantische« (Wiener Symphoniker - Lovro von Matacic) - 2000, FLAC (image+.cue) lossless


 

[Цитировать]

BRUCKNER
Symphony No.4 Romantic
Vienna Symphony Orchestra - Lovro von Matačić
--- Жанр: Orchestral
Страна-производитель диска: USA (Japan?)
Год издания диска: 2000
Издатель (лейбл): FKM
Дата записи: 13.06.1974
Аудиокодек: FLAC
Тип рипа: image+.cue
Битрейт аудио: lossless
Продолжительность: 62'36''
Источник: собственный рип
Наличие сканов в содержимом раздачи: да
Треклист:
A.Bruckner - Symphonie Nr.4:
[01] I. Bewegt, nicht zu schnell
[02] II. Andante quasi allegretto
[03] III. Scherzo. Bewegt
[04] IV. Finale. Bewegt, doch nicht zu schell
Исполнители:
Wiener Symphoniker - Lovro von Matačić-

Лог создания рипа

Exact Audio Copy V1.0 beta 3 from 29. August 2011
EAC extraction logfile from 22. October 2014, 22:42
Wiener Symphoniker - Lovro von Matačić / A.Bruckner - Symphony No.4
Used drive : TSSTcorpCDDVDW SN-208BB Adapter: 0 ID: 1
Read mode : Secure
Utilize accurate stream : Yes
Defeat audio cache : Yes
Make use of C2 pointers : No
Read offset correction : 6
Overread into Lead-In and Lead-Out : No
Fill up missing offset samples with silence : Yes
Delete leading and trailing silent blocks : No
Null samples used in CRC calculations : Yes
Used interface : Native Win32 interface for Win NT & 2000
Used output format : User Defined Encoder
Selected bitrate : 896 kBit/s
Quality : High
Add ID3 tag : No
Command line compressor : C:\Program Files (x86)\FLAC\flac.exe
Additional command line options : -T "COMMENT=rip by el coronel" -8 -V %source%
TOC of the extracted CD
Track | Start | Length | Start sector | End sector
---------------------------------------------------------
1 | 0:00.00 | 17:34.24 | 0 | 79073
2 | 17:34.24 | 15:06.53 | 79074 | 147076
3 | 32:41.02 | 9:58.30 | 147077 | 191956
4 | 42:39.32 | 19:56.27 | 191957 | 281683
Range status and errors
Selected range
Filename K:\Music\Bruckner 4 - WS, Matacic\A.Bruckner - Symphony No.4.wav
Peak level 86.4 %
Extraction speed 3.3 X
Range quality 100.0 %
Test CRC 34F66AC3
Copy CRC 34F66AC3
Copy OK
No errors occurred
AccurateRip summary
Track 1 not present in database
Track 2 not present in database
Track 3 not present in database
Track 4 not present in database
None of the tracks are present in the AccurateRip database
End of status report
==== Log checksum 0BB6D742F2636E35E880627069C892A49571476DA37CB1B0508C7E1C9B5B8857 ====

Содержание индексной карты (.CUE)

REM GENRE Classical
REM DATE 2000
REM DISCID 2F0EAB04
REM COMMENT "ExactAudioCopy v1.0b3"
PERFORMER "Wiener Symphoniker - Lovro von Matacic"
TITLE "A.Bruckner - Symphony No.4"
FILE "A.Bruckner - Symphony No.4.flac" WAVE
TRACK 01 AUDIO
TITLE "I. Bewegt, nicht zu schnell"
PERFORMER "Wiener Symphoniker - Lovro von Matacic"
INDEX 01 00:00:00
TRACK 02 AUDIO
TITLE "II. Andante quasi allegretto"
PERFORMER "Wiener Symphoniker - Lovro von Matacic"
INDEX 01 17:34:24
TRACK 03 AUDIO
TITLE "III. Scherzo. Bewegt"
PERFORMER "Wiener Symphoniker - Lovro von Matacic"
INDEX 01 32:41:02
TRACK 04 AUDIO
TITLE "IV. Finale. Bewegt, doch nicht zu schell"
PERFORMER "Wiener Symphoniker - Lovro von Matacic"
INDEX 01 42:39:32
-Доп. информация: диск из весьма труднодоступной частной серии музыкального общества "Fachmann für Klassischer Musik". Единственная аудиозапись Матачича, где он дирижирует 4-ую Симфонию Брукнера в редакции Новака.



Показать сообщения:    

Текущее время: 11-Дек 11:05

Часовой пояс: UTC + 3


Вы не можете начинать темы
Вы не можете отвечать на сообщения
Вы не можете редактировать свои сообщения
Вы не можете удалять свои сообщения
Вы не можете голосовать в опросах
Вы не можете прикреплять файлы к сообщениям
Вы не можете скачивать файлы