Не плачь по мне, Аргентина! История Евы Перон / Evita: Her Real Story (Ричард Блат / Richard Bluth) [1997, документальный, биографический, DVB] DVO (ИНИС)


Статистика раздачи [Обновить пиров]
Размер:  2.18 GB   |    Зарегистрирован:  8 месяцев 19 дней   |    Скачан:  0 раз

Полного источника не было: Никогда

 
   
 
 
 

[Цитировать]

Не плачь по мне, Аргентина! История Евы Перон
Evita: Her Real Story- Дата/Год выпуска: 1997
Страна: США, Канада
Жанр: документальный, биографический
Продолжительность: 01:14:42
Перевод: Профессиональный (двухголосый закадровый)
Доп. инфо о переводе: Студия "ИНИС" по заказу компании "Централ Партнершип"
Русские субтитры: нет
Режиссер: Ричард Блат / Richard Bluth
Телеканал: 365 дней
Описание: Кем была Мария Ева Дуарте Перон? Обольстительной блондинкой, которую изображала Мадонна на экране? Простушкой - певичкой в дешёвом кабаре? Романтичной босоногой Золушкой, ставшей любимицей миллионов? В этой хрупкой маленькой девушке, соблазнившей президента Аргентины, было что-то большее, чем просто красота. Ева Перрон, подобно яркой комете, стремительно вознеслась на мировой полический Олимп, вспыхнула во всей своей красе и угасла в 32 года. Но память о ней живёт до сих пор. Фильм расскажет невероятную историю девочки, которая вопреки условностям и запретам, любила до боли. Своего мужчину. Свою Родину. Свой народ.
Доп. информация: DVB-S

качество: DVB
формат: MKV
Видео: MPEG Video 2, 720x576@768x576 (4:3), 25 fps, ~3911 kbps avg, 0.377 bit/pixel
Аудио: MPEG Audio 2, 2 ch, 48 kHz, ~192.00 kbps avg

MediaInfo

Общее
Уникальный идентификатор : 206763263268964055115128612961714811563 (0x9B8D27F075FC9D4CA25604F092D1B2AB)
Полное имя : F:\My Torrents 3\[apreder]Evita_Her_Real_Story(1997)DVB.mkv
Формат : Matroska
Версия формата : Version 2
Размер файла : 2,18 Гбайт
Продолжительность : 1 ч. 14 м.
Режим общего битрейта : Переменный
Общий поток : 4187 Кбит/сек
Дата кодирования : UTC 2015-09-11 16:06:47
Программа кодирования : mkvmerge v8.3.0 ('Over the Horizon') 64bit
Библиотека кодирования : libebml v1.3.1 + libmatroska v1.4.2
Attachements : cover.jpg / cover_small.jpg
TITLE : Evita: Her Real Story
DATE_RELEASED : 1997-00-00
LAW_RATING : 16+
ACTOR : Madonna
DIRECTOR : Richard Bluth
KEYWORDS : rutracker.org
Видео
Идентификатор : 1
Формат : MPEG Video
Версия формата : Version 2
Профиль формата : Main@Main
Параметр BVOP формата : Да
Параметр матрицы формата : Выборочная
Параметр GOP формата : Variable
Format_Settings_PictureStructure : Frame
Идентификатор кодека : V_MPEG2
Идентификатор кодека/Информация : MPEG 1 or 2 Video
Продолжительность : 1 ч. 14 м.
Вид битрейта : Переменный
Битрейт : 3911 Кбит/сек
Ширина : 720 пикселей
Высота : 576 пикселей
Соотношение сторон : 4:3
Режим частоты кадров : Постоянный
Частота кадров : 25,000 кадров/сек
Стандарт вещания : PAL
Цветовое пространство : YUV
Субдискретизация насыщенности : 4:2:0
Битовая глубина : 8 бит
Тип развёртки : Чересстрочная
Порядок развёртки : Верхнее поле первое
Метод сжатия : С потерями
Бит/(Пиксели*Кадры) : 0.377
Временной код первого кадра : 00:00:00:00
Оригинал временного кода : Group of pictures header
Размер потока : 2,04 Гбайт (93%)
Default : Да
Forced : Нет
Аудио
Идентификатор : 2
Формат : MPEG Audio
Версия формата : Version 1
Профиль формата : Layer 2
Идентификатор кодека : A_MPEG/L2
Идентификатор кодека/Подсказка : MP2
Продолжительность : 1 ч. 14 м.
Вид битрейта : Постоянный
Битрейт : 192 Кбит/сек
Каналы : 2 канала
Частота : 48,0 КГц
Метод сжатия : С потерями
Размер потока : 103 Мбайт (5%)
Язык : Russian
Default : Да
Forced : Нет

Скриншоты

Резервные скриншоты

-
[teatrix.ru].t22233.torrent 
Торрент: Зарегистрирован [ 2016-03-20 12:40 ] · 8EB3D2ECD9ABB79D78B238AD2C95AAFD4410E9B7

Скачать .torrent

Скачать

11 KB

Статус: проверено
Скачан: 0 раз
Размер: 2.18 GB
terms.php



Быстрый ответ

Имя:

      
Для отправки сообщений необходимо включить JavaScript
Показать сообщения:    

Текущее время: 09-Дек 04:55

Часовой пояс: UTC + 3


Вы можете начинать темы
Вы можете отвечать на сообщения
Вы не можете редактировать свои сообщения
Вы не можете удалять свои сообщения
Вы не можете голосовать в опросах
Вы не можете прикреплять файлы к сообщениям
Вы можете скачивать файлы