(Classical) Wolfgang Amadeus Mozart - Le nozze di Figaro (Daniel Barenboim, John Tomlinson, Joan Rodgers) - 1990, FLAC (image+.cue) lossless


 

[Цитировать]

Wolfgang Amadeus Mozart - Le nozze di Figaro (Daniel Barenboim, John Tomlinson, Joan Rodgers)
Жанр: Classical
Год издания диска: 1990
Издатель (лейбл): Erato
Номер по каталогу: Erato 2292-45501-2
Год записи:
Аудиокодек: FLAC
Тип рипа: image+.cue
Битрейт аудио: lossless
Продолжительность: CD1'01:02:09; CD2'00:55:20; CD2'00:56:12
Источник: скачано из сети
Наличие сканов в содержимом раздачи: да
Исполнители:
Il Conte di Almaviva - Andeas Schmidt
La Contessa di Almaviva - Lella Cuberli
Susanna - Joan Rodgers
Figaro - John Tomlinson
Cherubino - Cecilia Bartoli
Marcellina - Phyllis Pancella
Don Curzio - Richard Brünner
Antonio - Peter Rose
Basilio - Graham Clark
Bartolo - Günter von Kannen
Barbarina - Hilde Leidland
RIAS Kammerchor
Berliner Philharmoniker
Conductor - Daniel Barenboim

Треклист:

CD1
01. Ouverture (04:16)
02. Atto Primo. Duettino: Cinque...dieci...venti... (02:48)
03. Recitativo: Cosa stai misurando (00:42)
04. Duettino: Se a caso Madama la notte ti chiama (02:28)
05. Recitativo: Or bene, ascolta, e taci! (02:25)
06. Cavatina: Se vuol ballare, Signor Contino (02:35)
07. Recitativo: Ed aspettaste it giorno fissato (01:03)
08. Aria: La vendetta, oh, la vendetta! (02:58)
09. Recitativo: Tutto ancor non ho perso (00:45)
10. Duettino: Via, resti servita, madama brillante (02:15)
11. Recitativo: Val la, Vecchia pedante (01:45)
12. Aria: Non so piu cosa faccio (02:32)
13. Recitativo: Ah son perduto! (03:28)
14. Terzetto: Cosa sento! tosto andate (04:17)
15. Recitativo: Basilio, in traccia tosto di Figaro volate (00:57)
16. Coro: Giovani lieti, fiori spargete (01:05)
17. Recitativo: Cos'e questa commedia? (01:22)
18. Coro: Giovani lieti, fiori spargete (00:49)
19. Recitativo: Evviva! (01:12)
20. Aria: Non piu andrai, farfallone amoroso (03:51)
21. Atto Secondo. Cavatina: Porgi amor qualche ristoro (04:04)
22. Recitativo: Vieni, cara Susanna (03:46)
23. Recitativo: Quanto duol'mi, Susanna (01:12)
24. Arietta: Voi, che sapete che cosa e amor (02:51)
25. Recitativo: Bravo! che bella voce! (01:04)
26. Aria: Venite, inginocchiatevi (03:01)
27. Recitativo: Quante buffonerie! (02:38)
CD2
01. Recitativo: Che novita! (01:14)
02. Terzetto: Susanna, or via sorite (03:10)
03. Recitativo: Dunque, voi non aprite? (00:53)
04. Duettino: Aprite, presto, aprite (01:14)
05. Recitativo: Or guarda il demonietto! (00:19)
06. Recitativo: Tutto e come il lasciai! (01:13)
07. Finale: Esci omai, garzon malnato (21:19)
08. Atto Terzo. Recitativo: Che imbarrazzo e mai questo! (02:09)
09. Duettino: Crudel! perche finora (02:40)
10. Recitativo: E perche fosti meco (00:44)
11. Recitativo ed Aria: Hai gia vinta la causa! (01:22)
12. Aria: Vedro mentre io sospiro (03:24)
13. Recitativo: E decisa la lite (01:51)
14. Sestetto: Riconosci in questo amplesso (04:59)
15. Recitativo: Eccovi, oh caro amico (01:07)
16. Recitativo: Andiam, andiam, bel paggio (00:41)
17. Recitativo: E Susanna non vien! (01:50)
18. Aria: Dove sono i bei momenti (05:11)
CD3
01. Recitativo: lo vi dico, signor (00:29)
02. Recitativo: Cosa mi narri (00:31)
03. Duettino: Che soave zeffiretto (02:25)
04. Recitativo: Piegato e il foglio (00:22)
05. Coro: Ricevete, oh padroncina (01:13)
06. Recitativo: Queste sono, madame (03:04)
07. Finale: Ecco la marcia, andiamo (06:51)
08. Atto Quarto. Cavatina: L'ho perduta, me meschina (01:40)
09. Recitativo: Barbarina, cos'hai? (01:59)
10. Recitativo: Presto av vertiam Susanna (00:35)
11. Aria: Il capro e la capretta (03:48)
12. Recitativo: Nel padiglione a manca (01:57)
13. Aria: In quegl'anni, in cui val poco (03:45)
14. Recitativo ed Aria: Tutto e disposto (01:28)
15. Aria: Aprite un po' quegl'occhi (02:44)
16. Recitativo: Signora, ella mi disse (00:51)
17. Recitativo: Giunse alfin il momento (01:20)
18. Aria: Deh vieni, non tardar (03:17)
19. Recitativo: Perfida! e in quella forma meco mentia? (00:36)
20. Finale: Pian pianin le andro piu presso (17:17)

Log EAC:LOG CD01:

Exact Audio Copy V1.0 beta 3 from 29. August 2011
EAC extraction logfile from 8. August 2015, 18:19
Daniel Barenboim / Mozart - Le Nozze di Figaro CD1
Used drive : PIONEER BD-RW BDR-207M Adapter: 0 ID: 0
Read mode : Secure
Utilize accurate stream : Yes
Defeat audio cache : Yes
Make use of C2 pointers : No
Read offset correction : 667
Overread into Lead-In and Lead-Out : No
Fill up missing offset samples with silence : Yes
Delete leading and trailing silent blocks : No
Null samples used in CRC calculations : Yes
Used interface : Native Win32 interface for Win NT & 2000
Used output format : User Defined Encoder
Selected bitrate : 128 kBit/s
Quality : High
Add ID3 tag : No
Command line compressor : C:\Program Files\Exact Audio Copy\Flac\flac.exe
Additional command line options : -V -8 -T "Date=%year%" -T "Genre=%genre%" %source%
TOC of the extracted CD
Track | Start | Length | Start sector | End sector
---------------------------------------------------------
1 | 0:00.00 | 4:16.62 | 0 | 19261
2 | 4:16.62 | 2:48.15 | 19262 | 31876
3 | 7:05.02 | 0:42.25 | 31877 | 35051
4 | 7:47.27 | 2:28.48 | 35052 | 46199
5 | 10:16.00 | 2:25.60 | 46200 | 57134
6 | 12:41.60 | 2:35.25 | 57135 | 68784
7 | 15:17.10 | 1:03.70 | 68785 | 73579
8 | 16:21.05 | 2:58.42 | 73580 | 86971
9 | 19:19.47 | 0:45.55 | 86972 | 90401
10 | 20:05.27 | 2:15.23 | 90402 | 100549
11 | 22:20.50 | 1:45.22 | 100550 | 108446
12 | 24:05.72 | 2:32.58 | 108447 | 119904
13 | 26:38.55 | 3:28.35 | 119905 | 135539
14 | 30:07.15 | 4:17.37 | 135540 | 154851
15 | 34:24.52 | 0:57.63 | 154852 | 159189
16 | 35:22.40 | 1:05.07 | 159190 | 164071
17 | 36:27.47 | 1:22.13 | 164072 | 170234
18 | 37:49.60 | 0:49.00 | 170235 | 173909
19 | 38:38.60 | 1:12.35 | 173910 | 179344
20 | 39:51.20 | 3:51.05 | 179345 | 196674
21 | 43:42.25 | 4:04.05 | 196675 | 214979
22 | 47:46.30 | 3:46.57 | 214980 | 231986
23 | 51:33.12 | 1:12.70 | 231987 | 237456
24 | 52:46.07 | 2:51.68 | 237457 | 250349
25 | 55:38.00 | 1:04.52 | 250350 | 255201
26 | 56:42.52 | 3:01.70 | 255202 | 268846
27 | 59:44.47 | 2:38.25 | 268847 | 280721
Range status and errors
Selected range
Filename C:\Program Files\Exact Audio Copy\Flac\Mozart - Le Nozze di Figaro CD1.wav
Peak level 85.2 %
Extraction speed 7.5 X
Range quality 99.9 %
Test CRC C8B1BA05
Copy CRC C8B1BA05
Copy OK
No errors occurred
End of status report
==== Log checksum F5CB21CCC5E66D6ACB68B951C75DD408EE2412E5C00937492C87F1AF35E299DB ====

LOG CD02:

Exact Audio Copy V1.0 beta 3 from 29. August 2011
EAC extraction logfile from 8. August 2015, 18:44
Daniel Barenboim / Mozart - Le Nozze di Figaro CD2
Used drive : PIONEER BD-RW BDR-207M Adapter: 0 ID: 0
Read mode : Secure
Utilize accurate stream : Yes
Defeat audio cache : Yes
Make use of C2 pointers : No
Read offset correction : 667
Overread into Lead-In and Lead-Out : No
Fill up missing offset samples with silence : Yes
Delete leading and trailing silent blocks : No
Null samples used in CRC calculations : Yes
Used interface : Native Win32 interface for Win NT & 2000
Used output format : User Defined Encoder
Selected bitrate : 128 kBit/s
Quality : High
Add ID3 tag : No
Command line compressor : C:\Program Files\Exact Audio Copy\Flac\flac.exe
Additional command line options : -V -8 -T "Date=%year%" -T "Genre=%genre%" %source%
TOC of the extracted CD
Track | Start | Length | Start sector | End sector
---------------------------------------------------------
1 | 0:00.00 | 1:14.65 | 0 | 5614
2 | 1:14.65 | 3:10.20 | 5615 | 19884
3 | 4:25.10 | 0:53.08 | 19885 | 23867
4 | 5:18.18 | 1:14.55 | 23868 | 29472
5 | 6:32.73 | 0:19.62 | 29473 | 30959
6 | 6:52.60 | 1:13.43 | 30960 | 36477
7 | 8:06.28 | 21:19.47 | 36478 | 132449
8 | 29:26.00 | 2:09.23 | 132450 | 142147
9 | 31:35.23 | 2:40.72 | 142148 | 154219
10 | 34:16.20 | 0:44.73 | 154220 | 157592
11 | 35:01.18 | 1:22.40 | 157593 | 163782
12 | 36:23.58 | 3:24.37 | 163783 | 179119
13 | 39:48.20 | 1:51.38 | 179120 | 187482
14 | 41:39.58 | 4:59.62 | 187483 | 209969
15 | 46:39.45 | 1:07.18 | 209970 | 215012
16 | 47:46.63 | 0:41.30 | 215013 | 218117
17 | 48:28.18 | 1:50.70 | 218118 | 226437
18 | 50:19.13 | 5:11.47 | 226438 | 249809
Range status and errors
Selected range
Filename C:\Program Files\Exact Audio Copy\Flac\Mozart - Le Nozze di Figaro CD2.wav
Peak level 100.0 %
Extraction speed 7.1 X
Range quality 100.0 %
Test CRC 00A45837
Copy CRC 00A45837
Copy OK
No errors occurred
End of status report
==== Log checksum 5A2B9D04B5A45482A128D4D60C930CB4ABC6E71619203612FD3870A316B8FFF3 ====

LOG CD03:

Exact Audio Copy V1.0 beta 3 from 29. August 2011
EAC extraction logfile from 8. August 2015, 19:10
Daniel Barenboim / Mozart - Le Nozze di Figaro CD3
Used drive : PIONEER BD-RW BDR-207M Adapter: 0 ID: 0
Read mode : Secure
Utilize accurate stream : Yes
Defeat audio cache : Yes
Make use of C2 pointers : No
Read offset correction : 667
Overread into Lead-In and Lead-Out : No
Fill up missing offset samples with silence : Yes
Delete leading and trailing silent blocks : No
Null samples used in CRC calculations : Yes
Used interface : Native Win32 interface for Win NT & 2000
Used output format : User Defined Encoder
Selected bitrate : 128 kBit/s
Quality : High
Add ID3 tag : No
Command line compressor : C:\Program Files\Exact Audio Copy\Flac\flac.exe
Additional command line options : -V -8 -T "Date=%year%" -T "Genre=%genre%" %source%
TOC of the extracted CD
Track | Start | Length | Start sector | End sector
---------------------------------------------------------
1 | 0:00.00 | 0:29.10 | 0 | 2184
2 | 0:29.10 | 0:31.30 | 2185 | 4539
3 | 1:00.40 | 2:25.35 | 4540 | 15449
4 | 3:26.00 | 0:22.65 | 15450 | 17164
5 | 3:48.65 | 1:13.60 | 17165 | 22699
6 | 5:02.50 | 3:04.45 | 22700 | 36544
7 | 8:07.20 | 6:51.53 | 36545 | 67422
8 | 14:58.73 | 1:40.12 | 67423 | 74934
9 | 16:39.10 | 1:59.50 | 74935 | 83909
10 | 18:38.60 | 0:35.38 | 83910 | 86572
11 | 19:14.23 | 3:48.20 | 86573 | 103692
12 | 23:02.43 | 1:57.35 | 103693 | 112502
13 | 25:00.03 | 3:45.22 | 112503 | 129399
14 | 28:45.25 | 1:28.05 | 129400 | 136004
15 | 30:13.30 | 2:44.35 | 136005 | 148339
16 | 32:57.65 | 0:51.43 | 148340 | 152207
17 | 33:49.33 | 1:20.25 | 152208 | 158232
18 | 35:09.58 | 3:17.22 | 158233 | 173029
19 | 38:27.05 | 0:36.25 | 173030 | 175754
20 | 39:03.30 | 17:18.03 | 175755 | 253607
Range status and errors
Selected range
Filename C:\Program Files\Exact Audio Copy\Flac\Mozart - Le Nozze di Figaro CD3.wav
Peak level 96.0 %
Extraction speed 7.1 X
Range quality 99.9 %
Test CRC 9A22BADF
Copy CRC 9A22BADF
Copy OK
No errors occurred
End of status report
==== Log checksum DF39B5DDBCF9D0CA1DCCB56A5E38308B12A36B4D7F1B8C5CBC02A112735B0C15 ====
Спасибо Vilboa за предоставление материала!



Показать сообщения:    

Текущее время: 03-Дек 09:50

Часовой пояс: UTC + 3


Вы не можете начинать темы
Вы не можете отвечать на сообщения
Вы не можете редактировать свои сообщения
Вы не можете удалять свои сообщения
Вы не можете голосовать в опросах
Вы не можете прикреплять файлы к сообщениям
Вы не можете скачивать файлы