(Opera) Marinuzzi - Jacquerie (Solman, Salvadori, Galgani, Surais - Orchestra e Coro dell'E.A.R. Teatro Bellini di Catania, Licata) - 2006, APE (image+.cue) lossless


 

[Цитировать]

Gino Marinuzzi - Jacquerie
Жанр: Opera
Страна-производитель диска: EU
Год издания диска: 2006
Издатель (лейбл): Nuova Era Internazionale
Номер по каталогу: 223306-311
Дата записи: 1994
Аудиокодек: APE
Тип рипа: image+.cue
Битрейт аудио: lossless
Продолжительность: 31'06+50'26
Источник: собственный рип
Наличие сканов в содержимом раздачи: да
Треклист:
CD1
1. Act 1. Ecco la coppia di sposi novella
2. Act 1. Prima ch'entriate sotto il tetto novo
3. Act 1. Senti che pace qui...
4. Act 1. Nulla! Non c'è pietà per noi!
5. Act 1. Evviva corrado!
CD2
1. Act 2. Filippo aymant!
2. Act 2. Sudditi, questo è giorno di letizia
3. Act 2. Se rei fummo un sol momento
4. Act 2. Corrado me la dona?
5. Act 2. Ma apparve poi l'alba
6. Act 2. Soffoco!
7. Act 3. Sette in terra e sette in cielo
8. Act 3. Avanti!
9. Act 3. Vien!
10. Act 3. Pietà ! Ti bacio le man...
Исполнители:
Gino Marinuzzi - Jacquerie
Opera in 3 Acts
Miro Solman
Antonio Salvadori
Ilaria Galgani
Martine Surais
Orchestra e Coro dell'E.A.R. Teatro Bellini di Catania
Andrea Licata

Лог создания рипа

CD1

Exact Audio Copy V1.0 beta 6 from 9. April 2015
EAC extraction logfile from 6. September 2015, 15:10
Solman, Salvador, Galgani_Orch. Teatro Bellini Catania / Marinuzzi - Jacquerie, Licata CD1
Used drive : TSSTcorpCDDVDW SE-208AB Adapter: 1 ID: 2
Read mode : Secure
Utilize accurate stream : Yes
Defeat audio cache : Yes
Make use of C2 pointers : No
Read offset correction : 6
Overread into Lead-In and Lead-Out : No
Fill up missing offset samples with silence : Yes
Delete leading and trailing silent blocks : No
Null samples used in CRC calculations : Yes
Used interface : Native Win32 interface for Win NT & 2000
Used output format : Monkey's Audio Lossless Encoder
Selected bitrate : High Lossless Compression
Quality : High
Add ID3 tag : Yes
Command line compressor : C:\Program Files (x86)\Exact Audio Copy\MAC\MAC.exe
TOC of the extracted CD
Track | Start | Length | Start sector | End sector
---------------------------------------------------------
1 | 0:00.00 | 3:44.72 | 0 | 16871
2 | 3:44.72 | 7:51.13 | 16872 | 52209
3 | 11:36.10 | 7:11.62 | 52210 | 84596
4 | 18:47.72 | 3:42.38 | 84597 | 101284
5 | 22:30.35 | 8:34.37 | 101285 | 139871
Range status and errors
Selected range
Filename D:\EAC\Marinuzzi - Jacquerie, Licata CD1.wav
Peak level 95.9 %
Extraction speed 1.6 X
Range quality 100.0 %
Test CRC 4ED8A79C
Copy CRC 4ED8A79C
Copy OK
No errors occurred
AccurateRip summary
Track 1 accurately ripped (confidence 4) [BD9FBDC7] (AR v2)
Track 2 accurately ripped (confidence 4) [4380E0F1] (AR v2)
Track 3 accurately ripped (confidence 4) [BE5B1807] (AR v2)
Track 4 accurately ripped (confidence 4) [4E2FE27D] (AR v2)
Track 5 accurately ripped (confidence 4) [6CCAD0BC] (AR v2)
All tracks accurately ripped
End of status report
---- CUETools DB Plugin V2.1.6
[CTDB TOCID: BzgR9tiGMCYbyVISgMiPwuRWLhY-] found
Submit result: BzgR9tiGMCYbyVISgMiPwuRWLhY- has been confirmed
Track | CTDB Status
1 | (7/7) Accurately ripped
2 | (7/7) Accurately ripped
3 | (7/7) Accurately ripped
4 | (7/7) Accurately ripped
5 | (7/7) Accurately ripped
==== Log checksum EC5DAC27BF7013B9935D68718CAC932D2074470FAB3908C02E7F7A102EDE00C8 ====

CD2

Exact Audio Copy V1.0 beta 6 from 9. April 2015
EAC extraction logfile from 6. September 2015, 15:23
Solman, Salvador, Galgani_Orch. Teatro Bellini Catania / Marinuzzi - Jacquerie, Licata CD2
Used drive : TS8XDVDSTRANSCEND Adapter: 1 ID: 1
Read mode : Secure
Utilize accurate stream : Yes
Defeat audio cache : Yes
Make use of C2 pointers : No
Read offset correction : 6
Overread into Lead-In and Lead-Out : No
Fill up missing offset samples with silence : Yes
Delete leading and trailing silent blocks : No
Null samples used in CRC calculations : Yes
Used interface : Native Win32 interface for Win NT & 2000
Used output format : Monkey's Audio Lossless Encoder
Selected bitrate : High Lossless Compression
Quality : High
Add ID3 tag : Yes
Command line compressor : C:\Program Files (x86)\Exact Audio Copy\MAC\MAC.exe
TOC of the extracted CD
Track | Start | Length | Start sector | End sector
---------------------------------------------------------
1 | 0:00.00 | 4:13.11 | 0 | 18985
2 | 4:13.11 | 7:49.12 | 18986 | 54172
3 | 12:02.23 | 5:18.00 | 54173 | 78022
4 | 17:20.23 | 2:50.50 | 78023 | 90822
5 | 20:10.73 | 5:55.50 | 90823 | 117497
6 | 26:06.48 | 3:25.00 | 117498 | 132872
7 | 29:31.48 | 11:08.25 | 132873 | 182997
8 | 40:39.73 | 2:03.00 | 182998 | 192222
9 | 42:42.73 | 1:23.00 | 192223 | 198447
10 | 44:05.73 | 6:19.00 | 198448 | 226872
Range status and errors
Selected range
Filename D:\EAC\Marinuzzi - Jacquerie, Licata CD2.wav
Peak level 96.5 %
Extraction speed 1.8 X
Range quality 100.0 %
Test CRC 55238220
Copy CRC 55238220
Copy OK
No errors occurred
AccurateRip summary
Track 1 accurately ripped (confidence 4) [213EA508] (AR v2)
Track 2 accurately ripped (confidence 4) [D3BF71B5] (AR v2)
Track 3 accurately ripped (confidence 4) [CACD712B] (AR v2)
Track 4 accurately ripped (confidence 4) [9C99E007] (AR v2)
Track 5 accurately ripped (confidence 4) [488FD9AB] (AR v2)
Track 6 accurately ripped (confidence 4) [580BAAAE] (AR v2)
Track 7 accurately ripped (confidence 4) [5392EC5A] (AR v2)
Track 8 accurately ripped (confidence 3) [C6249557] (AR v2)
Track 9 accurately ripped (confidence 3) [FF8C5372] (AR v2)
Track 10 accurately ripped (confidence 3) [F40B4F48] (AR v2)
All tracks accurately ripped
End of status report
---- CUETools DB Plugin V2.1.6
[CTDB TOCID: sAbBn_YYFuUpZQ0jUhn7mNjeH_o-] found
Submit result: unrecognized or virtual drive
Track | CTDB Status
1 | (7/7) Accurately ripped
2 | (7/7) Accurately ripped
3 | (7/7) Accurately ripped
4 | (7/7) Accurately ripped
5 | (7/7) Accurately ripped
6 | (7/7) Accurately ripped
7 | (7/7) Accurately ripped
8 | (7/7) Accurately ripped
9 | (7/7) Accurately ripped
10 | (7/7) Accurately ripped
==== Log checksum 10E68309E049A300F02BD08721741520884F08A19F66B56E67BDEDB8E8CFEE49 ====

Содержание индексной карты (.CUE)

CD1

REM GENRE Opera
REM DATE 1994
REM DISCID 3B074805
REM COMMENT "ExactAudioCopy v1.0b6"
PERFORMER "Solman, Salvador, Galgani_Orch. Teatro Bellini Catania"
TITLE "Marinuzzi - Jacquerie, Licata CD1"
FILE "Marinuzzi - Jacquerie, Licata CD1.ape" WAVE
TRACK 01 AUDIO
TITLE "Act 1 - Ecco la coppia disposi novella"
PERFORMER "Solman, Salvador, Galgani_Orch. Teatro Bellini Catania"
ISRC DEU240528625
INDEX 01 00:00:00
TRACK 02 AUDIO
TITLE "Act 1 - Prima Ch'entriate sotto il tetto novo"
PERFORMER "Solman, Salvador, Galgani_Orch. Teatro Bellini Catania"
ISRC DEU240528626
INDEX 01 03:44:72
TRACK 03 AUDIO
TITLE "Act 1 - Senti che pace qui"
PERFORMER "Solman, Salvador, Galgani_Orch. Teatro Bellini Catania"
ISRC DEU240528627
INDEX 01 11:36:10
TRACK 04 AUDIO
TITLE "Act 1 - Nulla Non c'e pieta per noi"
PERFORMER "Solman, Salvador, Galgani_Orch. Teatro Bellini Catania"
ISRC DEU240528628
INDEX 01 18:47:72
TRACK 05 AUDIO
TITLE "Act 1 - Evviva corrado"
PERFORMER "Solman, Salvador, Galgani_Orch. Teatro Bellini Catania"
ISRC DEU240528629
INDEX 01 22:30:35

CD2

REM GENRE Opera
REM DATE 1994
REM DISCID 7D0BD00A
REM COMMENT "ExactAudioCopy v1.0b6"
PERFORMER "Solman, Salvador, Galgani_Orch. Teatro Bellini Catania"
TITLE "Marinuzzi - Jacquerie, Licata CD2"
FILE "Marinuzzi - Jacquerie, Licata CD2.ape" WAVE
TRACK 01 AUDIO
TITLE "Act 2 - Filipo Aymant"
PERFORMER "Solman, Salvador, Galgani_Orch. Teatro Bellini Catania"
ISRC DEU240528630
INDEX 01 00:00:00
TRACK 02 AUDIO
TITLE "Act 2 - Sudditi questo e giorno di letizia"
PERFORMER "Solman, Salvador, Galgani_Orch. Teatro Bellini Catania"
ISRC DEU240528631
INDEX 01 04:13:11
TRACK 03 AUDIO
TITLE "Act 2 - Se rei fummo un sol momento"
PERFORMER "Solman, Salvador, Galgani_Orch. Teatro Bellini Catania"
ISRC DEU240528632
INDEX 01 12:02:23
TRACK 04 AUDIO
TITLE "Act 2 - Corrado me la donna"
PERFORMER "Solman, Salvador, Galgani_Orch. Teatro Bellini Catania"
ISRC DEU240528633
INDEX 01 17:20:23
TRACK 05 AUDIO
TITLE "Act 2 - Ma apparve poi l'alba"
PERFORMER "Solman, Salvador, Galgani_Orch. Teatro Bellini Catania"
ISRC DEU240528634
INDEX 01 20:10:73
TRACK 06 AUDIO
TITLE "Act 2 - Soffoco"
PERFORMER "Solman, Salvador, Galgani_Orch. Teatro Bellini Catania"
ISRC DEU240528635
INDEX 01 26:06:48
TRACK 07 AUDIO
TITLE "Act 3 - Sette in terrra esette in cielo"
PERFORMER "Solman, Salvador, Galgani_Orch. Teatro Bellini Catania"
ISRC DEU240528636
INDEX 01 29:31:48
TRACK 08 AUDIO
TITLE "Act 2 - Avanti"
PERFORMER "Solman, Salvador, Galgani_Orch. Teatro Bellini Catania"
ISRC DEU240528637
INDEX 01 40:39:73
TRACK 09 AUDIO
TITLE "Act 2 - Vieni"
PERFORMER "Solman, Salvador, Galgani_Orch. Teatro Bellini Catania"
ISRC DEU240528638
INDEX 01 42:42:73
TRACK 10 AUDIO
TITLE "Act 2 - Pieta ti bacio le man"
PERFORMER "Solman, Salvador, Galgani_Orch. Teatro Bellini Catania"
ISRC DEU240528638
INDEX 01 44:05:73
Доп. информация:
Born in Palermo, Sicily in 1882, Gino Marinuzzi was eighteen years old when his first composition, a Requiem dedicated to King Umberto I, was successfully performed in 1900.
A year later he was music director of the Teatro Massimo in Palermo, and soon making a name for himself outside of Italy, particularly conducting the works of Richard Strauss.
Marinuzzi was also a friend of Puccini, and gave the premiere performance of La rondine in 1917.
Marinuzzi succeeded Busoni as director of the Bologna Conservatory in 1916, and came to the US just two years later as artistic director of the Chicago Opera Association.
Upon his return to Italy in the late 1930s, Marinuzzi directed the Rome Opera House, then worked at La Scala until his death in 1945.
Marinuzzi composed three operas. Barberina (Teatro Massimo, Palermo, 1903), Jacquerie (Teatro Colón, Buenos Aires, 1918) and Palla de' Mozzi (La Scala, Milan, 1932).
Jacquerie, is set against the historical background of the peasant revolt of the 1350s.



Показать сообщения:    

Текущее время: 06-Дек 19:03

Часовой пояс: UTC + 3


Вы не можете начинать темы
Вы не можете отвечать на сообщения
Вы не можете редактировать свои сообщения
Вы не можете удалять свои сообщения
Вы не можете голосовать в опросах
Вы не можете прикреплять файлы к сообщениям
Вы не можете скачивать файлы