La nuit Louis XIV de William Christie (Jean Baptiste Lully, Marc-Antoine Charpentier, Henry Desmarest, Michel Richard de Lalande, Francois Couperin) Les Arts Florissants, Elodie Fonnard, Emilie Renard [2015, Classical / Baroque, HDTV 720p]


 

[Цитировать]

La nuit Louis XIV de William Christie
Les Arts Florissants • William Christie

-
Год выпуска: 2015
Лейбл: AGAT Films & Cie / ARTE France
Жанр: Classical / Baroque
Продолжительность: 01:22:27
Язык: французский (Denis Podalydès - présentation)
Режиссер: Louise Narboni
Исполнители:
Chœur: Les Arts Florissants
Orchestre: Les Arts Florissants
Direction musicale: William Christie
Chorégraphie: Nicolas Paul
Danseur: Adrien Couvez
Solistes
Élodie Fonnard - soprano
Emilie Renard - mezzo soprano
Reinoud Van Mechelen - haute-contre
Victor Sicard - baryton
et
Virgine Thomas - soprano
Sean Clayton - haute-contre
Треклист:
Jean Baptiste Lully
- Atys (Prologue - Acte III - Acte V)
- Regina Caeli
- Le Bourgeois Gentilhomme
Marc-Antoine Charpentier
- Te deum
- Le Malade Imagianire
- Les plaisirs de Versailles
Henry Desmarest
- Usquequo Domine
Michel Richard de Lalande
- Te deum
- Les fontaines de Versailles
François Couperin
- Sarabande du primier Concert Royal
Robert de Visée
- Chaconne en LA mineur
Доп. информация:
Filmé à l'Opéra Royal, à la Chapelle Royale et à la Galerie des Glaces du Château de Versailles
La nuit Louis XIV de William Christie arte.tv
Les Arts Florissants Official Site
William Christie from Wikipedia, the free encyclopedia
Élodie Fonnard Official Site
Качество видео: HDTV 720p
Контейнер: TS
Видео кодек: H.264
Аудио кодек: AC3
Видео поток: Overall bit rate: 7 960 Kbps, 1280*720 (16:9), at 50.000 fps, AVC (High@L4.0) (CABAC / 4 Ref Frames)
Аудио поток: German, 192 Kbps, 48.0 KHz, 2 channels, MPEG Audio (Version 1) (Layer 2)
Аудио 2: French, 192 Kbps, 48.0 KHz, 2 channels, MPEG Audio (Version 1) (Layer 2)
Аудио 3: Multiple languages, 448 Kbps, 48.0 KHz, 16 bits, 6 channels, AC-3
Аудио 4: 192 Kbps, 48.0 KHz, 2 channels, MPEG Audio (Version 1) (Layer 2)
Источник: Digital Satellite > SkyStar HD2 (TechniSat) > raw data to HDD > Cypheros TS-Doctor > Smart Cutter (cut) > ts

MediaInfo

General
ID : 8900 (0x22C4)
Complete name : C:\rutracker.org_HD\arte HD_La nuit Louis XIV de William Christie (Les Arts Florissants) 2015.ts
Format : MPEG-TS
File size : 4.58 GiB
Duration : 1h 22mn
Overall bit rate mode : Variable
Overall bit rate : 7 960 Kbps
Video
ID : 5111 (0x13F7)
Menu ID : 10302 (0x283E)
Format : AVC
Format/Info : Advanced Video Codec
Format profile : High@L4.0
Format settings, CABAC : Yes
Format settings, ReFrames : 4 frames
Format settings, GOP : M=8, N=32
Codec ID : 27
Duration : 1h 22mn
Bit rate : 6 532 Kbps
Width : 1 280 pixels
Height : 720 pixels
Display aspect ratio : 16:9
Frame rate : 50.000 fps
Color space : YUV
Chroma subsampling : 4:2:0
Bit depth : 8 bits
Scan type : Progressive
Bits/(Pixel*Frame) : 0.142
Stream size : 3.76 GiB (82%)
Audio #1
ID : 5112 (0x13F8)
Menu ID : 10302 (0x283E)
Format : MPEG Audio
Format version : Version 1
Format profile : Layer 2
Codec ID : 3
Duration : 1h 22mn
Bit rate mode : Constant
Bit rate : 192 Kbps
Channel(s) : 2 channels
Sampling rate : 48.0 KHz
Compression mode : Lossy
Delay relative to video : -18ms
Stream size : 113 MiB (2%)
Language : German
Audio #2
ID : 5113 (0x13F9)
Menu ID : 10302 (0x283E)
Format : MPEG Audio
Format version : Version 1
Format profile : Layer 2
Codec ID : 3
Duration : 1h 22mn
Bit rate mode : Constant
Bit rate : 192 Kbps
Channel(s) : 2 channels
Sampling rate : 48.0 KHz
Compression mode : Lossy
Delay relative to video : -20ms
Stream size : 113 MiB (2%)
Language : French
Audio #3
ID : 5116 (0x13FC)
Menu ID : 10302 (0x283E)
Format : AC-3
Format/Info : Audio Coding 3
Mode extension : CM (complete main)
Format settings, Endianness : Big
Codec ID : 6
Duration : 1h 22mn
Bit rate mode : Constant
Bit rate : 448 Kbps
Channel(s) : 6 channels
Channel positions : Front: L C R, Side: L R, LFE
Sampling rate : 48.0 KHz
Bit depth : 16 bits
Compression mode : Lossy
Delay relative to video : -29ms
Stream size : 264 MiB (6%)
Language : Multiple languages
Audio #4
ID : 5117 (0x13FD)
Menu ID : 10302 (0x283E)
Format : MPEG Audio
Format version : Version 1
Format profile : Layer 2
Codec ID : 3
Duration : 1h 22mn
Bit rate mode : Constant
Bit rate : 192 Kbps
Channel(s) : 2 channels
Sampling rate : 48.0 KHz
Compression mode : Lossy
Delay relative to video : -9ms
Stream size : 113 MiB (2%)

... info ...

La nuit Louis XIV de William Christie
L'orchestre des Arts Florissants dirigé par William Christie célèbre le tricentenaire du Roi-Soleil. Dans l'écrin scintillant du château de Versailles, les plus belles compositions de la musique baroque française résonneront à nouveau à l'occasion d'une promenade nocturne d'exception.
Pour célébrer le tricentenaire de la mort de Louis XIV, l'orchestre des Arts Florissants, dirigé par William Christie, fait résonner les plus beaux airs de Lully, Charpentier, Delalande, Couperin, Desmaret et de Visée au cœur du château de Versailles, où ils ont été joués pour le plaisir du roi des arts. Bercée par la voix de Denis Podalydès et rythmée par les pas de danse de Nicolas Paul, de l'Opéra de Paris, cette promenade nocturne nous entraîne dans trois espaces emblématiques : l'Atys de Lully enchante l'Opéra royal du château, les Te deum retentissent dans la Chapelle royale, et la musique de cour fait virevolter la galerie des Glaces.
~ arte.tv/guide/fr



Показать сообщения:    

Текущее время: 07-Дек 21:24

Часовой пояс: UTC + 3


Вы не можете начинать темы
Вы не можете отвечать на сообщения
Вы не можете редактировать свои сообщения
Вы не можете удалять свои сообщения
Вы не можете голосовать в опросах
Вы не можете прикреплять файлы к сообщениям
Вы не можете скачивать файлы