(Classical) Mozart - Leider aus drei Generationen (Konrad Jarnot, Alexander Schmalcz) - 2006, FLAC (tracks+.cue) lossless


 

[Цитировать]

Konrad Jarnot, Alexander Schmalcz - Mozart - Dreigestirn
Жанр: Classical
Страна-производитель диска: EU
Год издания диска: 2006
Издатель (лейбл): Musikproduktion Dieter Oehms GmbH
Номер по каталогу: OC564
Аудиокодек: FLAC
Тип рипа: tracks+.cue
Битрейт аудио: lossless
Продолжительность: 1:06:03.
Источник: собственный рип
Наличие сканов в содержимом раздачи: да
Треклист:
L. Mozart
01. Die Zufriedenheit im niedrigen Stande [0:01:08.74]
02. Die groЯmьthige Gelassenheit [0:00:53.01]
03. Bei dem Abschied [0:00:56.74]
04. Geheime Liebe [0:02:22.00]
W.A. Mozart
05. An die Freude KV 53 [0:02:29.01]
06. Oiseaux, si tous les ans KV 307 [0:01:35.73]
07. Dans un bois solitaire KV 308 [0:02:57.01]
08. Ridente la calma KV 152 [0:04:10.01]
09. Warnung KV 433 [0:02:01.00]
10. Das Veilchen KV 476 [0:02:09.73]
11. An Chloe KV 524 [0:02:30.02]
12. Abendempfindung an Laura KV 523 [0:04:47.00]
13. Das Lied der Trennung KV 519 [0:06:35.00]
14. Das Traumbild KV 530 [0:04:51.74]
15. An die Freundschaft KV 125h [0:03:05.74]
F.X. Mozart
16. An sprцde Schцnen [0:01:38.02]
17. Nein! [0:02:05.00]
18. Der Schmetterling [0:01:08.74]
19. Klage an den Mond [0:02:04.00]
20. Erntelied [0:01:20.74]
21. An den Abendstern [0:02:59.02]
22. Das Finden [0:02:44.74]
23. Erinnerung [0:01:45.00]
24. An Emma [0:03:19.00]
Julie von Baroni-Cavalcabу
25. Warum ? [0:04:24.27]
Исполнители:
Konrad Jarnot - baritone;
Alexander Schmalcz - piano.

Лог создания рипа

Exact Audio Copy V1.0 beta 3 from 29. August 2011
Отчёт EAC об извлечении, выполненном 4. сентября 2015, 22:59
Konrad Jarnot, Alexander Schmalcz / Mozart-Dreigestirn - Lieder aus drei Generationen
Дисковод: ASUS DRW-1814BLT Adapter: 4 ID: 0
Режим чтения : Достоверность
Использование точного потока : Да
Отключение кэша аудио : Да
Использование указателей C2 : Нет
Коррекция смещения при чтении : 6
Способность читать области Lead-in и Lead-out : Нет
Заполнение пропущенных сэмплов тишиной : Да
Удаление блоков с тишиной в начале и конце : Нет
При вычислениях CRC использовались нулевые сэмплы : Да
Интерфейс : Встроенный Win32-интерфейс для Win NT/2000
Обработка зазоров : Добавлено к предыдущему треку
Выходной формат : Пользовательский кодировщик
Выбранный битрейт : 128 kBit/s
Качество : Высокий
Добавление ID3-тега : Нет
Утилита сжатия : C:\Program Files\Exact Audio Copy\Flac\flac.exe
Дополнительные параметры : -V -8 -T "Genre=%genre%" -T "Artist=%artist%" -T "Title=%title%" -T "Album=%albumtitle%" -T "Date=%year%" -T "Tracknumber=%tracknr%" -T "Comment=EAC1.0b2 FLAC -8" %source%
TOC извлечённого CD
Трек | Старт | Длительность | Начальный сектор | Конечный сектор
---------------------------------------------------------------------
1 | 0:00.00 | 1:08.74 | 0 | 5173
2 | 1:08.74 | 0:53.01 | 5174 | 9149
3 | 2:02.00 | 0:56.74 | 9150 | 13423
4 | 2:58.74 | 2:22.00 | 13424 | 24073
5 | 5:20.74 | 2:29.01 | 24074 | 35249
6 | 7:50.00 | 1:35.73 | 35250 | 42447
7 | 9:25.73 | 2:57.01 | 42448 | 55723
8 | 12:22.74 | 4:10.01 | 55724 | 74474
9 | 16:33.00 | 2:01.00 | 74475 | 83549
10 | 18:34.00 | 2:09.73 | 83550 | 93297
11 | 20:43.73 | 2:30.02 | 93298 | 104549
12 | 23:14.00 | 4:47.00 | 104550 | 126074
13 | 28:01.00 | 6:35.00 | 126075 | 155699
14 | 34:36.00 | 4:51.74 | 155700 | 177598
15 | 39:27.74 | 3:05.74 | 177599 | 191547
16 | 42:33.73 | 1:38.02 | 191548 | 198899
17 | 44:12.00 | 2:05.00 | 198900 | 208274
18 | 46:17.00 | 1:08.74 | 208275 | 213448
19 | 47:25.74 | 2:04.00 | 213449 | 222748
20 | 49:29.74 | 1:20.74 | 222749 | 228822
21 | 50:50.73 | 2:59.02 | 228823 | 242249
22 | 53:50.00 | 2:44.74 | 242250 | 254623
23 | 56:34.74 | 1:45.00 | 254624 | 262498
24 | 58:19.74 | 3:19.00 | 262499 | 277423
25 | 61:38.74 | 4:24.27 | 277424 | 297250
Трек 1
Имя файла R:\Раздача 53\Mozart - Konrad Jarnot - 2006\01 L. Mozart- Die Zufriedenheit im niedrigen Stande.wav
Длина предзазора 0:00:02.00
Пиковый уровень 41.4 %
Скорость извлечения 3.8 X
Качество трека 100.0 %
CRC теста B0D74438
CRC копии B0D74438
Точное извлечение (достоверность 1) [3A0CC4E6] (AR v1)
Копирование... OK
Трек 2
Имя файла R:\Раздача 53\Mozart - Konrad Jarnot - 2006\02 L. Mozart- Die groЯmьthige Gelassenheit.wav
Длина предзазора 0:00:02.48
Пиковый уровень 34.5 %
Скорость извлечения 3.6 X
Качество трека 100.0 %
CRC теста 4F84F684
CRC копии 4F84F684
Точное извлечение (достоверность 1) [6F8D2620] (AR v1)
Копирование... OK
Трек 3
Имя файла R:\Раздача 53\Mozart - Konrad Jarnot - 2006\03 L. Mozart- Bei dem Abschied.wav
Длина предзазора 0:00:04.52
Пиковый уровень 53.2 %
Скорость извлечения 3.7 X
Качество трека 100.0 %
CRC теста 54C7E1C0
CRC копии 54C7E1C0
Точное извлечение (достоверность 1) [A011D154] (AR v1)
Копирование... OK
Трек 4
Имя файла R:\Раздача 53\Mozart - Konrad Jarnot - 2006\04 L. Mozart- Geheime Liebe.wav
Длина предзазора 0:00:02.48
Пиковый уровень 44.3 %
Скорость извлечения 5.1 X
Качество трека 100.0 %
CRC теста 726848F8
CRC копии 726848F8
Точное извлечение (достоверность 1) [B56E277F] (AR v1)
Копирование... OK
Трек 5
Имя файла R:\Раздача 53\Mozart - Konrad Jarnot - 2006\05 W.A. Mozart- An die Freude KV 53.wav
Длина предзазора 0:00:04.50
Пиковый уровень 46.7 %
Скорость извлечения 5.5 X
Качество трека 100.0 %
CRC теста 505E0011
CRC копии 505E0011
Точное извлечение (достоверность 1) [782D8B62] (AR v1)
Копирование... OK
Трек 6
Имя файла R:\Раздача 53\Mozart - Konrad Jarnot - 2006\06 W.A. Mozart- Oiseaux, si tous les ans KV 307.wav
Длина предзазора 0:00:04.58
Пиковый уровень 48.1 %
Скорость извлечения 5.1 X
Качество трека 100.0 %
CRC теста A54E0CF3
CRC копии A54E0CF3
Точное извлечение (достоверность 1) [4C44671E] (AR v1)
Копирование... OK
Трек 7
Имя файла R:\Раздача 53\Mozart - Konrad Jarnot - 2006\07 W.A. Mozart- Dans un bois solitaire KV 308.wav
Длина предзазора 0:00:04.48
Пиковый уровень 95.6 %
Скорость извлечения 6.2 X
Качество трека 100.0 %
CRC теста 57665251
CRC копии 57665251
Точное извлечение (достоверность 1) [53E3C245] (AR v1)
Копирование... OK
Трек 8
Имя файла R:\Раздача 53\Mozart - Konrad Jarnot - 2006\08 W.A. Mozart- Ridente la calma KV 152.wav
Длина предзазора 0:00:03.48
Пиковый уровень 32.6 %
Скорость извлечения 5.2 X
Качество трека 99.9 %
CRC теста 5316DC52
CRC копии 5316DC52
Точное извлечение (достоверность 1) [47FA5E99] (AR v1)
Копирование... OK
Трек 9
Имя файла R:\Раздача 53\Mozart - Konrad Jarnot - 2006\09 W.A. Mozart- Warnung KV 433.wav
Длина предзазора 0:00:02.50
Пиковый уровень 87.8 %
Скорость извлечения 6.3 X
Качество трека 100.0 %
CRC теста F271D428
CRC копии F271D428
Точное извлечение (достоверность 1) [2DD4D10D] (AR v1)
Копирование... OK
Трек 10
Имя файла R:\Раздача 53\Mozart - Konrad Jarnot - 2006\10 W.A. Mozart- Das Veilchen KV 476.wav
Длина предзазора 0:00:02.51
Пиковый уровень 51.8 %
Скорость извлечения 6.5 X
Качество трека 100.0 %
CRC теста 60261C5C
CRC копии 60261C5C
Точное извлечение (достоверность 1) [5C5C20A9] (AR v1)
Копирование... OK
Трек 11
Имя файла R:\Раздача 53\Mozart - Konrad Jarnot - 2006\11 W.A. Mozart- An Chloe KV 524.wav
Длина предзазора 0:00:03.48
Пиковый уровень 57.6 %
Скорость извлечения 5.0 X
Качество трека 99.9 %
CRC теста A8BA5A58
CRC копии A8BA5A58
Точное извлечение (достоверность 1) [F84BA51D] (AR v1)
Копирование... OK
Трек 12
Имя файла R:\Раздача 53\Mozart - Konrad Jarnot - 2006\12 W.A. Mozart- Abendempfindung an Laura KV 523.wav
Длина предзазора 0:00:03.50
Пиковый уровень 43.7 %
Скорость извлечения 8.1 X
Качество трека 100.0 %
CRC теста AB584A40
CRC копии AB584A40
Точное извлечение (достоверность 1) [F27EDA59] (AR v1)
Копирование... OK
Трек 13
Имя файла R:\Раздача 53\Mozart - Konrad Jarnot - 2006\13 W.A. Mozart- Das Lied der Trennung KV 519.wav
Длина предзазора 0:00:04.49
Пиковый уровень 76.4 %
Скорость извлечения 8.9 X
Качество трека 100.0 %
CRC теста 4164FF5E
CRC копии 4164FF5E
Точное извлечение (достоверность 1) [8650EABB] (AR v1)
Копирование... OK
Трек 14
Имя файла R:\Раздача 53\Mozart - Konrad Jarnot - 2006\14 W.A. Mozart- Das Traumbild KV 530.wav
Длина предзазора 0:00:05.50
Пиковый уровень 45.0 %
Скорость извлечения 9.1 X
Качество трека 100.0 %
CRC теста CEC9DF51
CRC копии CEC9DF51
Точное извлечение (достоверность 1) [C2E066BB] (AR v1)
Копирование... OK
Трек 15
Имя файла R:\Раздача 53\Mozart - Konrad Jarnot - 2006\15 W.A. Mozart- An die Freundschaft KV 125h.wav
Длина предзазора 0:00:04.48
Пиковый уровень 31.6 %
Скорость извлечения 8.8 X
Качество трека 100.0 %
CRC теста 19FBCEE2
CRC копии 19FBCEE2
Точное извлечение (достоверность 1) [FBEC0325] (AR v1)
Копирование... OK
Трек 16
Имя файла R:\Раздача 53\Mozart - Konrad Jarnot - 2006\16 F.X. Mozart- An sprцde Schцnen.wav
Длина предзазора 0:00:05.47
Пиковый уровень 48.9 %
Скорость извлечения 7.7 X
Качество трека 100.0 %
CRC теста 8D21E34F
CRC копии 8D21E34F
Точное извлечение (достоверность 1) [E203D92F] (AR v1)
Копирование... OK
Трек 17
Имя файла R:\Раздача 53\Mozart - Konrad Jarnot - 2006\17 F.X. Mozart- Nein!.wav
Длина предзазора 0:00:04.49
Пиковый уровень 45.0 %
Скорость извлечения 8.3 X
Качество трека 100.0 %
CRC теста C670CABE
CRC копии C670CABE
Точное извлечение (достоверность 1) [84584414] (AR v1)
Копирование... OK
Трек 18
Имя файла R:\Раздача 53\Mozart - Konrad Jarnot - 2006\18 F.X. Mozart- Der Schmetterling.wav
Длина предзазора 0:00:02.49
Пиковый уровень 34.0 %
Скорость извлечения 7.0 X
Качество трека 100.0 %
CRC теста AEA82B3D
CRC копии AEA82B3D
Точное извлечение (достоверность 1) [52EDD765] (AR v1)
Копирование... OK
Трек 19
Имя файла R:\Раздача 53\Mozart - Konrad Jarnot - 2006\19 F.X. Mozart- Klage an den Mond.wav
Длина предзазора 0:00:04.50
Пиковый уровень 16.7 %
Скорость извлечения 8.6 X
Качество трека 100.0 %
CRC теста 6340AE92
CRC копии 6340AE92
Точное извлечение (достоверность 1) [B4CAFAB7] (AR v1)
Копирование... OK
Трек 20
Имя файла R:\Раздача 53\Mozart - Konrad Jarnot - 2006\20 F.X. Mozart- Erntelied.wav
Длина предзазора 0:00:04.49
Пиковый уровень 45.8 %
Скорость извлечения 4.8 X
Качество трека 99.8 %
CRC теста 24D77F98
CRC копии 24D77F98
Точное извлечение (достоверность 1) [4B0BBC0D] (AR v1)
Копирование... OK
Трек 21
Имя файла R:\Раздача 53\Mozart - Konrad Jarnot - 2006\21 F.X. Mozart- An den Abendstern.wav
Длина предзазора 0:00:03.48
Пиковый уровень 48.0 %
Скорость извлечения 9.5 X
Качество трека 100.0 %
CRC теста C4F28562
CRC копии C4F28562
Точное извлечение (достоверность 1) [B294FC2E] (AR v1)
Копирование... OK
Трек 22
Имя файла R:\Раздача 53\Mozart - Konrad Jarnot - 2006\22 F.X. Mozart- Das Finden.wav
Длина предзазора 0:00:03.49
Пиковый уровень 73.7 %
Скорость извлечения 6.8 X
Качество трека 99.9 %
CRC теста 2672BB68
CRC копии 2672BB68
Точное извлечение (достоверность 1) [1B8DF3C2] (AR v1)
Копирование... OK
Трек 23
Имя файла R:\Раздача 53\Mozart - Konrad Jarnot - 2006\23 F.X. Mozart- Erinnerung.wav
Длина предзазора 0:00:04.47
Пиковый уровень 45.4 %
Скорость извлечения 8.7 X
Качество трека 100.0 %
CRC теста 8B7F2F45
CRC копии 8B7F2F45
Точное извлечение (достоверность 1) [3CA03C8A] (AR v1)
Копирование... OK
Трек 24
Имя файла R:\Раздача 53\Mozart - Konrad Jarnot - 2006\24 F.X. Mozart- An Emma.wav
Длина предзазора 0:00:04.48
Пиковый уровень 78.3 %
Скорость извлечения 10.1 X
Качество трека 100.0 %
CRC теста DA2E787F
CRC копии DA2E787F
Точное извлечение (достоверность 1) [B78F8088] (AR v1)
Копирование... OK
Трек 25
Имя файла R:\Раздача 53\Mozart - Konrad Jarnot - 2006\25 Julie von Baroni-Cavalcabу- Warum.wav
Длина предзазора 0:00:04.49
Пиковый уровень 92.8 %
Скорость извлечения 10.7 X
Качество трека 100.0 %
CRC теста 9EC4F9F8
CRC копии 9EC4F9F8
Точное извлечение (достоверность 1) [6EF097D1] (AR v1)
Копирование... OK
Все треки извлечены точно
Ошибок не произошло
Конец отчёта
==== Контрольная сумма отчёта C7EAE2E88B919D37D0EB3EA93D44A5A6D2D782CD54216DA756218195B7A2EBB5 ====

Содержание индексной карты (.CUE)

REM GENRE Classical
REM DATE 2006
REM DISCID 640F7B19
REM COMMENT "ExactAudioCopy v1.0b3"
CATALOG 4260034865648
PERFORMER "Konrad Jarnot, Alexander Schmalcz"
TITLE "Mozart-Dreigestirn - Lieder aus drei Generationen"
FILE "01 L. Mozart- Die Zufriedenheit im niedrigen Stande.wav" WAVE
TRACK 01 AUDIO
TITLE "L. Mozart: Die Zufriedenheit im niedrigen Stande"
PERFORMER "Konrad Jarnot, Alexander Schmalcz"
ISRC FLAGS DCP
INDEX 01 00:00:00
TRACK 02 AUDIO
TITLE "L. Mozart: Die groЯmьthige Gelassenheit"
PERFORMER "Konrad Jarnot, Alexander Schmalcz"
ISRC FLAGS DCP
INDEX 00 01:06:26
FILE "02 L. Mozart- Die groЯmьthige Gelassenheit.wav" WAVE
INDEX 01 00:00:00
TRACK 03 AUDIO
TITLE "L. Mozart: Bei dem Abschied"
PERFORMER "Konrad Jarnot, Alexander Schmalcz"
ISRC FLAGS DCP
INDEX 00 00:48:24
FILE "03 L. Mozart- Bei dem Abschied.wav" WAVE
INDEX 01 00:00:00
TRACK 04 AUDIO
TITLE "L. Mozart: Geheime Liebe"
PERFORMER "Konrad Jarnot, Alexander Schmalcz"
ISRC FLAGS DCP
INDEX 00 00:54:26
FILE "04 L. Mozart- Geheime Liebe.wav" WAVE
INDEX 01 00:00:00
TRACK 05 AUDIO
TITLE "W.A. Mozart: An die Freude KV 53"
PERFORMER "Konrad Jarnot, Alexander Schmalcz"
ISRC FLAGS DCP
INDEX 00 02:17:25
FILE "05 W.A. Mozart- An die Freude KV 53.wav" WAVE
INDEX 01 00:00:00
TRACK 06 AUDIO
TITLE "W.A. Mozart: Oiseaux, si tous les ans KV 307"
PERFORMER "Konrad Jarnot, Alexander Schmalcz"
ISRC FLAGS DCP
INDEX 00 02:24:18
FILE "06 W.A. Mozart- Oiseaux, si tous les ans KV 307.wav" WAVE
INDEX 01 00:00:00
TRACK 07 AUDIO
TITLE "W.A. Mozart: Dans un bois solitaire KV 308"
PERFORMER "Konrad Jarnot, Alexander Schmalcz"
ISRC FLAGS DCP
INDEX 00 01:31:25
FILE "07 W.A. Mozart- Dans un bois solitaire KV 308.wav" WAVE
INDEX 01 00:00:00
TRACK 08 AUDIO
TITLE "W.A. Mozart: Ridente la calma KV 152"
PERFORMER "Konrad Jarnot, Alexander Schmalcz"
ISRC FLAGS DCP
INDEX 00 02:53:28
FILE "08 W.A. Mozart- Ridente la calma KV 152.wav" WAVE
INDEX 01 00:00:00
TRACK 09 AUDIO
TITLE "W.A. Mozart: Warnung KV 433"
PERFORMER "Konrad Jarnot, Alexander Schmalcz"
ISRC FLAGS DCP
INDEX 00 04:07:26
FILE "09 W.A. Mozart- Warnung KV 433.wav" WAVE
INDEX 01 00:00:00
TRACK 10 AUDIO
TITLE "W.A. Mozart: Das Veilchen KV 476"
PERFORMER "Konrad Jarnot, Alexander Schmalcz"
ISRC FLAGS DCP
INDEX 00 01:58:24
FILE "10 W.A. Mozart- Das Veilchen KV 476.wav" WAVE
INDEX 01 00:00:00
TRACK 11 AUDIO
TITLE "W.A. Mozart: An Chloe KV 524"
PERFORMER "Konrad Jarnot, Alexander Schmalcz"
ISRC FLAGS DCP
INDEX 00 02:06:25
FILE "11 W.A. Mozart- An Chloe KV 524.wav" WAVE
INDEX 01 00:00:00
TRACK 12 AUDIO
TITLE "W.A. Mozart: Abendempfindung an Laura KV 523"
PERFORMER "Konrad Jarnot, Alexander Schmalcz"
ISRC FLAGS DCP
INDEX 00 02:26:27
FILE "12 W.A. Mozart- Abendempfindung an Laura KV 523.wav" WAVE
INDEX 01 00:00:00
TRACK 13 AUDIO
TITLE "W.A. Mozart: Das Lied der Trennung KV 519"
PERFORMER "Konrad Jarnot, Alexander Schmalcz"
ISRC FLAGS DCP
INDEX 00 04:42:26
FILE "13 W.A. Mozart- Das Lied der Trennung KV 519.wav" WAVE
INDEX 01 00:00:00
TRACK 14 AUDIO
TITLE "W.A. Mozart: Das Traumbild KV 530"
PERFORMER "Konrad Jarnot, Alexander Schmalcz"
ISRC FLAGS DCP
INDEX 00 06:29:25
FILE "14 W.A. Mozart- Das Traumbild KV 530.wav" WAVE
INDEX 01 00:00:00
TRACK 15 AUDIO
TITLE "W.A. Mozart: An die Freundschaft KV 125h"
PERFORMER "Konrad Jarnot, Alexander Schmalcz"
ISRC FLAGS DCP
INDEX 00 04:47:26
FILE "15 W.A. Mozart- An die Freundschaft KV 125h.wav" WAVE
INDEX 01 00:00:00
TRACK 16 AUDIO
TITLE "F.X. Mozart: An sprцde Schцnen"
PERFORMER "Konrad Jarnot, Alexander Schmalcz"
ISRC FLAGS DCP
INDEX 00 03:00:27
FILE "16 F.X. Mozart- An sprцde Schцnen.wav" WAVE
INDEX 01 00:00:00
TRACK 17 AUDIO
TITLE "F.X. Mozart: Nein!"
PERFORMER "Konrad Jarnot, Alexander Schmalcz"
ISRC FLAGS DCP
INDEX 00 01:33:28
FILE "17 F.X. Mozart- Nein!.wav" WAVE
INDEX 01 00:00:00
TRACK 18 AUDIO
TITLE "F.X. Mozart: Der Schmetterling"
PERFORMER "Konrad Jarnot, Alexander Schmalcz"
ISRC FLAGS DCP
INDEX 00 02:02:26
FILE "18 F.X. Mozart- Der Schmetterling.wav" WAVE
INDEX 01 00:00:00
TRACK 19 AUDIO
TITLE "F.X. Mozart: Klage an den Mond"
PERFORMER "Konrad Jarnot, Alexander Schmalcz"
ISRC FLAGS DCP
INDEX 00 01:04:24
FILE "19 F.X. Mozart- Klage an den Mond.wav" WAVE
INDEX 01 00:00:00
TRACK 20 AUDIO
TITLE "F.X. Mozart: Erntelied"
PERFORMER "Konrad Jarnot, Alexander Schmalcz"
ISRC FLAGS DCP
INDEX 00 01:59:26
FILE "20 F.X. Mozart- Erntelied.wav" WAVE
INDEX 01 00:00:00
TRACK 21 AUDIO
TITLE "F.X. Mozart: An den Abendstern"
PERFORMER "Konrad Jarnot, Alexander Schmalcz"
ISRC FLAGS DCP
INDEX 00 01:17:26
FILE "21 F.X. Mozart- An den Abendstern.wav" WAVE
INDEX 01 00:00:00
TRACK 22 AUDIO
TITLE "F.X. Mozart: Das Finden"
PERFORMER "Konrad Jarnot, Alexander Schmalcz"
ISRC FLAGS DCP
INDEX 00 02:55:28
FILE "22 F.X. Mozart- Das Finden.wav" WAVE
INDEX 01 00:00:00
TRACK 23 AUDIO
TITLE "F.X. Mozart: Erinnerung"
PERFORMER "Konrad Jarnot, Alexander Schmalcz"
ISRC FLAGS DCP
INDEX 00 02:40:27
FILE "23 F.X. Mozart- Erinnerung.wav" WAVE
INDEX 01 00:00:00
TRACK 24 AUDIO
TITLE "F.X. Mozart: An Emma"
PERFORMER "Konrad Jarnot, Alexander Schmalcz"
ISRC FLAGS DCP
INDEX 00 01:40:27
FILE "24 F.X. Mozart- An Emma.wav" WAVE
INDEX 01 00:00:00
TRACK 25 AUDIO
TITLE "Julie von Baroni-Cavalcabу: Warum ?"
PERFORMER "Konrad Jarnot, Alexander Schmalcz"
ISRC FLAGS DCP
INDEX 00 03:14:26
FILE "25 Julie von Baroni-Cavalcabу- Warum.wav" WAVE
INDEX 01 00:00:00



Показать сообщения:    

Текущее время: 09-Дек 12:40

Часовой пояс: UTC + 3


Вы не можете начинать темы
Вы не можете отвечать на сообщения
Вы не можете редактировать свои сообщения
Вы не можете удалять свои сообщения
Вы не можете голосовать в опросах
Вы не можете прикреплять файлы к сообщениям
Вы не можете скачивать файлы