(Vocal, Rarety) Ricordando La Fenice / Remember La Fenice • Pasiello • Mayr • Buzzola • Paganini • Donizetti • Levi • Bellini • Casaretto (Pizzo, Signor - Fornaciari, Ferrarini, Meyr, Piastra) - 1998, APE (image+.cue) lossless


 

[Цитировать]

Ricordando La Fenice
Жанр: Vocal, Rarety
Страна-производитель диска: Germany
Год издания диска: 1998
Издатель (лейбл): Mondo Musica
Номер по каталогу: MM 96100
Дата записи: 1997
Аудиокодек: APE
Тип рипа: image+.cue
Битрейт аудио: lossless
Продолжительность: 72'06
Источник: собственный рип
Наличие сканов в содержимом раздачи: да
Треклист / Исполнители:
Giovanni Paisiello (1740-1816)
1. Nel Cor Piu Non Mi Sento (da La Molinara)
Rosetta Pizzo Soprano
Christine Meyr Clavicembalo
Simone Mayr (1763-1845)
2. La Domanda
3. La Stracavata
4. A Betina
Francesco Siqnor Basso
Christine Meyr Pianoforte
Antonio Buzzolla (1815-1871)
5. A Rossini (Revisione musicale Gianfranco Prato)
Rosetta Pizza Soprano
Christine Meyr Pianoforte
Nicolö Paganini (1782-1840)
6. I Palpiti (Variazioni Op 13 dal Tancredi di Rossini)
Marco Fornaciari Violino
Christine Meyr Pianoforte
Gaetano Donizetti (1792-1848)
7. Su L'onda Tremola
Rosetta Pizzo Soprano
Christine Meyr Pianoforte
Samuel Levi
8. L' Amor A Ore Perse
Francesco Signor Basso
Christine Meyr Pianoforte
Vincenzo Bellini (1801-1835)
9. Oh Quante Volte Oh Quante (da I Capuleti E I Montechi)
Rosetta Pizzo Soprano
Direttore Orchestra Marco Zuccarini
Orchestra Cinà Di Vicenza
Giovanni Casaretto (1816-1871)
10. Fantasia (da Rigoletto di Giuseppe Verdi)
Claudio Ferrarini Flauto
Christine Meyr Planoforte
Antonio Buzzolla (1815-1871)
11. La Sensa
Francesco Signor Basso
Christine Meyr Pianoforte
Paul Agricola-Genin (1816-1888)
12. Fantasia (da La Traviata di Giuseppe Verdi)
Claudio Ferrarini Flauto
Christine Meyr Pianofone
Ermanno Wolf-Ferrari (1876-1948)
13 -14. Romanza (da Il segreto di Susanna)
Claudio Ferrarini Flauto
Claudio Piastra Chitarra

Лог создания рипа

Exact Audio Copy V1.0 beta 6 from 9. April 2015
EAC extraction logfile from 13. September 2015, 16:52
Ricordando La Fenice / Remember La Fenice
Used drive : TS8XDVDSTRANSCEND Adapter: 1 ID: 1
Read mode : Secure
Utilize accurate stream : Yes
Defeat audio cache : Yes
Make use of C2 pointers : No
Read offset correction : 6
Overread into Lead-In and Lead-Out : No
Fill up missing offset samples with silence : Yes
Delete leading and trailing silent blocks : No
Null samples used in CRC calculations : Yes
Used interface : Native Win32 interface for Win NT & 2000
Used output format : Monkey's Audio Lossless Encoder
Selected bitrate : High Lossless Compression
Quality : High
Add ID3 tag : Yes
Command line compressor : C:\Program Files (x86)\Exact Audio Copy\MAC\MAC.exe
TOC of the extracted CD
Track | Start | Length | Start sector | End sector
---------------------------------------------------------
1 | 0:00.00 | 3:41.55 | 0 | 16629
2 | 3:41.55 | 1:08.14 | 16630 | 21743
3 | 4:49.69 | 0:54.18 | 21744 | 25811
4 | 5:44.12 | 0:59.55 | 25812 | 30291
5 | 6:43.67 | 3:21.53 | 30292 | 45419
6 | 10:05.45 | 9:38.55 | 45420 | 88824
7 | 19:44.25 | 4:13.10 | 88825 | 107809
8 | 23:57.35 | 2:50.00 | 107810 | 120559
9 | 26:47.35 | 10:06.32 | 120560 | 166041
10 | 36:53.67 | 11:51.10 | 166042 | 219376
11 | 48:45.02 | 5:07.08 | 219377 | 242409
12 | 53:52.10 | 11:07.52 | 242410 | 292486
13 | 64:59.62 | 4:04.43 | 292487 | 310829
14 | 69:04.30 | 3:02.20 | 310830 | 324499
Range status and errors
Selected range
Filename D:\EAC\Ricordando La Fenice - Remember La Fenice.wav
Peak level 99.9 %
Extraction speed 5.0 X
Range quality 100.0 %
Test CRC DFFAEF4C
Copy CRC DFFAEF4C
Copy OK
No errors occurred
AccurateRip summary
Track 1 accurately ripped (confidence 1) [83B60FFB] (AR v1)
Track 2 accurately ripped (confidence 2) [C4797AE7] (AR v1)
Track 3 accurately ripped (confidence 2) [518BD904] (AR v1)
Track 4 accurately ripped (confidence 2) [C274D26D] (AR v1)
Track 5 accurately ripped (confidence 2) [9126C73C] (AR v1)
Track 6 accurately ripped (confidence 2) [585DCC0B] (AR v1)
Track 7 accurately ripped (confidence 2) [13011B00] (AR v1)
Track 8 accurately ripped (confidence 2) [A6228B83] (AR v1)
Track 9 accurately ripped (confidence 2) [24F22565] (AR v1)
Track 10 accurately ripped (confidence 2) [48DC8015] (AR v1)
Track 11 accurately ripped (confidence 2) [06444BDD] (AR v1)
Track 12 accurately ripped (confidence 2) [FAFDD6A8] (AR v1)
Track 13 accurately ripped (confidence 2) [31D12888] (AR v1)
Track 14 accurately ripped (confidence 2) [AFB305ED] (AR v1)
All tracks accurately ripped
End of status report
---- CUETools DB Plugin V2.1.6
[CTDB TOCID: rWGTO2EyBPKnW9reOsZBW6ITONk-] found
Submit result: unrecognized or virtual drive
Track | CTDB Status
1 | (2/2) Accurately ripped
2 | (2/2) Accurately ripped
3 | (2/2) Accurately ripped
4 | (2/2) Accurately ripped
5 | (2/2) Accurately ripped
6 | (2/2) Accurately ripped
7 | (2/2) Accurately ripped
8 | (2/2) Accurately ripped
9 | (2/2) Accurately ripped
10 | (2/2) Accurately ripped
11 | (2/2) Accurately ripped
12 | (2/2) Accurately ripped
13 | (2/2) Accurately ripped
14 | (2/2) Accurately ripped
==== Log checksum 71F2EE1966FAC7A4C1DB0575B87B934D91688DA984334CB2D46F3C0B0527904F ====

Содержание индексной карты (.CUE)

REM GENRE Vocal
REM DATE 1998
REM DISCID AF10E60E
REM COMMENT "ExactAudioCopy v1.0b6"
PERFORMER "Ricordando La Fenice"
TITLE "Remember La Fenice"
FILE "Ricordando La Fenice - Remember La Fenice.ape" WAVE
TRACK 01 AUDIO
TITLE "Paisiello: Nel Cor Piu Non Mi Sento (da La Molinara)"
PERFORMER "Rosetta Pizzo, Soprano - Christine Meyr, Clavicembalo"
INDEX 01 00:00:00
TRACK 02 AUDIO
TITLE "Mayr: La Domanda "
PERFORMER "Francesco Siqnor, Basso - Christine Meyr, Pianoforte"
INDEX 00 03:35:57
INDEX 01 03:41:55
TRACK 03 AUDIO
TITLE "Mayr: La Stracavata"
PERFORMER "Francesco Siqnor, Basso - Christine Meyr, Pianoforte"
INDEX 01 04:49:69
TRACK 04 AUDIO
TITLE "Mayr: A Betina"
PERFORMER "Francesco Siqnor, Basso - Christine Meyr, Pianoforte"
INDEX 01 05:44:12
TRACK 05 AUDIO
TITLE "Buzzolla: A Rossini (Revisione musicale Gianfranco Prato)"
PERFORMER "Rosetta Pizzo, Soprano - Christine Meyr, Clavicembalo"
INDEX 01 06:43:67
TRACK 06 AUDIO
TITLE "Paganini: I Palpiti (Variazioni Op 13 dal Tancredi di Rossini)"
PERFORMER "Marco Fornaciari, Violino - Christine Meyr, Pianoforte "
INDEX 00 10:00:25
INDEX 01 10:05:45
TRACK 07 AUDIO
TITLE "Donizetti: Su L'onda Tremola"
PERFORMER "Rosetta Pizzo, Soprano - Christine Meyr, Clavicembalo"
INDEX 00 19:41:10
INDEX 01 19:44:25
TRACK 08 AUDIO
TITLE "Levi: L' Amor A Ore Perse "
PERFORMER "Francesco Siqnor, Basso - Christine Meyr, Pianoforte"
INDEX 00 23:53:40
INDEX 01 23:57:35
TRACK 09 AUDIO
TITLE "Bellini: Oh Quante Volte Oh Quante (da I Capuleti E I Montechi)"
PERFORMER "Rosetta Pizzo, Soprano - Orchestra Cinà Di Vicenza, Marco Zuccarini"
INDEX 00 26:43:54
INDEX 01 26:47:35
TRACK 10 AUDIO
TITLE "Casaretto: Fantasia (da Rigoletto di Giuseppe Verdi)"
PERFORMER "Claudio Ferrarini, Flauto - Christine Meyr, Planoforte"
INDEX 00 36:49:30
INDEX 01 36:53:67
TRACK 11 AUDIO
TITLE "Buzzolla: La Sensa "
PERFORMER "Francesco Siqnor, Basso - Christine Meyr, Pianoforte"
INDEX 00 48:41:05
INDEX 01 48:45:02
TRACK 12 AUDIO
TITLE "Agricola-Genin: Fantasia (da La Traviata di Giuseppe Verdi)"
PERFORMER "Claudio Ferrarini, Flauto - Christine Meyr, Planoforte"
INDEX 00 53:49:27
INDEX 01 53:52:10
TRACK 13 AUDIO
TITLE "Wolf-Ferrari: Romanza (da Il segreto di Susanna)"
PERFORMER "Claudio Ferrarini, Flauto - Claudio Piastra Chitarra"
INDEX 00 64:56:60
INDEX 01 64:59:62
TRACK 14 AUDIO
TITLE "Wolf-Ferrari: Romanza (da Il segreto di Susanna)"
PERFORMER "Claudio Ferrarini, Flauto - Claudio Piastra Chitarra"
INDEX 00 68:59:52
INDEX 01 69:04:30



Показать сообщения:    

Текущее время: 06-Дек 20:59

Часовой пояс: UTC + 3


Вы не можете начинать темы
Вы не можете отвечать на сообщения
Вы не можете редактировать свои сообщения
Вы не можете удалять свои сообщения
Вы не можете голосовать в опросах
Вы не можете прикреплять файлы к сообщениям
Вы не можете скачивать файлы