Soiree baroque a la Philharmonie de Paris (Jean-Joseph Cassanea de Mondonville, Jean-Philippe Rameau) Les Arts Florissants, William Christie, Danielle de Niese, Elliot Madore, Marc Mauillon [2015, Classical / Baroque, HDTV 720p]


 

[Цитировать]

Soirée baroque à la Philharmonie de Paris
Les Arts Florissants • William Christie

-
Год выпуска: 2015
Лейбл: CLC Productions - ARTE France
Жанр: Classical / Baroque
Продолжительность: 00:43:03
Режиссер: François-René Martin
Исполнители:
Chœur: Les Arts Florissants
Orchestre: Les Arts Florissants
Direction musicale: William Christie
Solistes
Danielle de Niese - soprano
Elliot Madore - baryton
Marc Mauillon - baryton
Треклист:
Jean-Joseph Cassanéa de Mondonville
- In exitu Israel - extraits
Jean-Philippe Rameau
- Les Indes Galantes "Les Sauvages" - extraits
- Les Indes Galantes "Forêts paisibles"
- La Naissance d'Osiris - extraits
- Les Indes Galantes "Les Fleurs, fête persane" - Tendre amour
Доп. информация:
Enregistré à la Philharmonie de Paris le 16 janvier 2015
Soiree baroque a la Philharmonie de Paris arte.tv
Les Arts Florissants Official Site
William Christie from Wikipedia, the free encyclopedia
Danielle de Niese Official Site
Danielle de Niese from Wikipedia, the free encyclopedia
Качество видео: HDTV 720p
Контейнер: TS
Видео кодек: H.264
Аудио кодек: AC3
Видео поток: Overall bit rate: 7 714 Kbps, 1280*720 (16:9), at 50.000 fps, AVC (High@L4.0) (CABAC / 4 Ref Frames)
Аудио поток: German, 192 Kbps, 48.0 KHz, 2 channels, MPEG Audio (Version 1) (Layer 2)
Аудио 2: French, 192 Kbps, 48.0 KHz, 2 channels, MPEG Audio (Version 1) (Layer 2)
Аудио 3: Multiple languages, 448 Kbps, 48.0 KHz, 16 bits, 6 channels, AC-3
Аудио 4: 192 Kbps, 48.0 KHz, 2 channels, MPEG Audio (Version 1) (Layer 2)
Источник: Digital Satellite > SkyStar HD2 (TechniSat) > raw data to HDD > Cypheros TS-Doctor > Smart Cutter (cut) > ts

MediaInfo

General
ID : 8900 (0x22C4)
Complete name : C:\rutracker.org_HD\arte HD_Soiree baroque a la Philharmonie de Paris (William Christie) 2015.ts
Format : MPEG-TS
File size : 2.32 GiB
Duration : 43mn 3s
Overall bit rate mode : Variable
Overall bit rate : 7 714 Kbps
Video
ID : 5111 (0x13F7)
Menu ID : 10302 (0x283E)
Format : AVC
Format/Info : Advanced Video Codec
Format profile : High@L4.0
Format settings, CABAC : Yes
Format settings, ReFrames : 4 frames
Format settings, GOP : M=6, N=32
Codec ID : 27
Duration : 43mn 3s
Bit rate : 6 299 Kbps
Width : 1 280 pixels
Height : 720 pixels
Display aspect ratio : 16:9
Frame rate : 50.000 fps
Color space : YUV
Chroma subsampling : 4:2:0
Bit depth : 8 bits
Scan type : Progressive
Bits/(Pixel*Frame) : 0.137
Stream size : 1.89 GiB (82%)
Audio #1
ID : 5112 (0x13F8)
Menu ID : 10302 (0x283E)
Format : MPEG Audio
Format version : Version 1
Format profile : Layer 2
Codec ID : 3
Duration : 43mn 3s
Bit rate mode : Constant
Bit rate : 192 Kbps
Channel(s) : 2 channels
Sampling rate : 48.0 KHz
Compression mode : Lossy
Delay relative to video : -20ms
Stream size : 59.1 MiB (2%)
Language : German
Audio #2
ID : 5113 (0x13F9)
Menu ID : 10302 (0x283E)
Format : MPEG Audio
Format version : Version 1
Format profile : Layer 2
Codec ID : 3
Duration : 43mn 3s
Bit rate mode : Constant
Bit rate : 192 Kbps
Channel(s) : 2 channels
Sampling rate : 48.0 KHz
Compression mode : Lossy
Delay relative to video : -20ms
Stream size : 59.1 MiB (2%)
Language : French
Audio #3
ID : 5116 (0x13FC)
Menu ID : 10302 (0x283E)
Format : AC-3
Format/Info : Audio Coding 3
Mode extension : CM (complete main)
Format settings, Endianness : Big
Codec ID : 6
Duration : 43mn 3s
Bit rate mode : Constant
Bit rate : 448 Kbps
Channel(s) : 6 channels
Channel positions : Front: L C R, Side: L R, LFE
Sampling rate : 48.0 KHz
Bit depth : 16 bits
Compression mode : Lossy
Delay relative to video : -6ms
Stream size : 138 MiB (6%)
Language : Multiple languages
Audio #4
ID : 5117 (0x13FD)
Menu ID : 10302 (0x283E)
Format : MPEG Audio
Format version : Version 1
Format profile : Layer 2
Codec ID : 3
Duration : 43mn 3s
Bit rate mode : Constant
Bit rate : 192 Kbps
Channel(s) : 2 channels
Sampling rate : 48.0 KHz
Compression mode : Lossy
Delay relative to video : -10ms
Stream size : 59.1 MiB (2%)

... info ...

Un programme dédié à la musique baroque et filmé lors de l'inauguration de la Philharmonie de Paris. Le chef d'orchestre William Christie, accompagné du baryton Marc Mauillon et de la soprano Danielle de Niese, rend un hommage vibrant aux compositeurs français Rameau et Mondoville.
Ce concert, donné lors de l'inauguration de la Philharmonie de Paris, illustre le dévouement de l'ensemble Les Arts Florissants à la musique baroque et aux compositeurs français. Oscillant entre profane et sacré, la soirée offre des extraits des extravagantes Indes galantes de Jean-Philippe Rameau et In exitu Israel de Jean Joseph Cassanéa de Mondonville. Des œuvres interprétées par le baryton Marc Mauillon et la soprano Danielle de Niese, partenaires fidèles du chef d'orchestre et fondateur des Arts Florissants William Christie.
~ arte.tv/guide/fr



Показать сообщения:    

Текущее время: 04-Дек 21:25

Часовой пояс: UTC + 3


Вы не можете начинать темы
Вы не можете отвечать на сообщения
Вы не можете редактировать свои сообщения
Вы не можете удалять свои сообщения
Вы не можете голосовать в опросах
Вы не можете прикреплять файлы к сообщениям
Вы не можете скачивать файлы