(Classical) Малишевский – Струнные квартет (№ 2) и квинтет / Maliszewski – Chamber works, vol. 1: String Quartet (No. 2) & Quintet (Four Strings Quartet: Fiedukiewitcz, Witek, Raszewska, Tudziersz; Fudala) - 2014, FLAC (image+.cue) lossless


 

[Цитировать]

Малишевский – Струнные квартет (№ 2) и квинтет / Maliszewski – Chamber works, vol. 1: String Quartet (No. 2) & Quintet (Four Strings Quartet, Wojciech Fudala)
Жанр: Classical
Страна-производитель диска: ЕС
Год издания диска: 2014
Издатель (лейбл): Acte Préalable
Номер по каталогу: ΑP0327
Дата записи: 8 декабря (квинтет) и 20 — 21 декабря (квартет) 2013 г., Бойшовы (Bojszowy).
Аудиокодек: FLAC
Тип рипа: image+.cue
Битрейт аудио: lossless
Продолжительность: 01:10:30
Источник: odeonmusic
Наличие сканов в содержимом раздачи: да
Треклист:-Витольд Осипович Малишевский (1873 — 1939).-Квинтет d-moll для двух скрипок, альта и двух виолончелей, op. 3 (опубл. 1904).
01. I. Allegro. — [Кода.] Presto. — Più mosso. — Prestissimo [11:08].
02. II. Andante tranquillo [07:21].
03. III. Scherzo. — Andantino. — Tempo I. — Andantino. — Tempo I. — Più mosso. — Presto [05:12].
04. IV. Allegro risoluto. — [Кода.] Più mosso [06:51].
Струнный квартет № 2 C-dur, op. 6 (опубл. 1905).
05. I. Largo. — Allegro. — [Кода.] Molto meno mosso. — Presto [12:03].
06. II. Andante con tristezza. — Poco più mosso. — Tempo I. — Poco più mosso. — Tempo I [08:43].
07. III. Allegro scherzando. — Poco più mosso. — Tempo I. — Più mosso. — Tempo I [08:41].
08. IV. Allegro. — [Кода.] Presto [10:27].-Исполнители:
Four Strings Quartet:
Lucyna Fiedukiewitcz (I скрипка),
Grzegorz Witek (II скрипка),
Beata Raszewska (альт),
Łukasz Tudziersz (виолончель).
Wojciech Fudala (I виолончель).-

Лог создания рипа

Exact Audio Copy V1.0 beta 3 from 29. August 2011
EAC extraction logfile from 5. November 2014, 10:44
Four Strings Quartet / Witold Maliszewski - Chamber Works Vol.1 - Four Strings Quartet
Used drive : TSSTcorpCDDVDW SH-222BB Adapter: 2 ID: 1
Read mode : Secure
Utilize accurate stream : Yes
Defeat audio cache : Yes
Make use of C2 pointers : No
Read offset correction : 6
Overread into Lead-In and Lead-Out : No
Fill up missing offset samples with silence : Yes
Delete leading and trailing silent blocks : No
Null samples used in CRC calculations : Yes
Used interface : Native Win32 interface for Win NT & 2000
Used output format : User Defined Encoder
Selected bitrate : 896 kBit/s
Quality : High
Add ID3 tag : No
Command line compressor : C:\Program Files\Exact Audio Copy\FLAC\FLAC.EXE
Additional command line options : -8 -V -T "TITLE=%title%" -T "ARTIST=%artist%" -T "ALBUMARTIST=%albumartist%" -T "ALBUM=%albumtitle%" -T "DATE=%year%" -T "TRACKNUMBER=%tracknr%" -T "TRACKTOTAL=%numtracks%" -T "GENRE=%genre%" -T "COMMENT=%comment%" -T "PERFORMER=%albuminterpret%" -T "COMPOSER=%composer%" %source% -o %dest%
TOC of the extracted CD
Track | Start | Length | Start sector | End sector
---------------------------------------------------------
1 | 0:00.00 | 11:08.48 | 0 | 50147
2 | 11:08.48 | 7:21.09 | 50148 | 83231
3 | 18:29.57 | 5:12.63 | 83232 | 106694
4 | 23:42.45 | 6:51.72 | 106695 | 137591
5 | 30:34.42 | 12:03.34 | 137592 | 191850
6 | 42:38.01 | 8:43.13 | 191851 | 231088
7 | 51:21.14 | 8:41.47 | 231089 | 270210
8 | 60:02.61 | 10:27.48 | 270211 | 317283
Range status and errors
Selected range
Filename G:\Ripped general\[7693] Witold Maliszewski – Chamber Works Vol.1 – Four Strings Quartet\Witold Maliszewski - Chamber Works Vol.1 - Four Strings Quartet.wav
Peak level 96.7 %
Extraction speed 4.2 X
Range quality 100.0 %
Test CRC DAB81005
Copy CRC DAB81005
Copy OK
No errors occurred
AccurateRip summary
Track 1 not present in database
Track 2 not present in database
Track 3 not present in database
Track 4 not present in database
Track 5 not present in database
Track 6 not present in database
Track 7 not present in database
Track 8 not present in database
None of the tracks are present in the AccurateRip database
End of status report
==== Log checksum FFC52FF3BD10CBE0123B8FF828EA9A2755866C8BFD2440B8F43745BA341CD0B6 ====

Содержание индексной карты (.CUE)

REM GENRE Classical
REM DISCID 58108608
REM COMMENT "ExactAudioCopy v1.0b3"
CATALOG 5901741653270
PERFORMER "Four Strings Quartet"
TITLE "Maliszewski – Chamber works, vol. 1 – Four Strings Quartet"
FILE "Maliszewski – Chamber works, vol. 1 – Four Strings Quartet.flac" WAVE
TRACK 01 AUDIO
TITLE "String Quintet in D minor, Op. 3 - I. Allegro"
PERFORMER "Four Strings Quartet"
ISRC GBRH61432701
INDEX 01 00:00:00
TRACK 02 AUDIO
TITLE "String Quintet in D minor, Op. 3 - II. Andante tranquillo"
PERFORMER "Four Strings Quartet"
ISRC GBRH61432702
INDEX 01 11:08:48
TRACK 03 AUDIO
TITLE "String Quintet in D minor, Op. 3 - III. Scherzo"
PERFORMER "Four Strings Quartet"
ISRC GBRH61432703
INDEX 01 18:29:57
TRACK 04 AUDIO
TITLE "String Quintet in D minor, Op. 3 - IV. Allegro risoluto"
PERFORMER "Four Strings Quartet"
ISRC GBRH61432704
INDEX 01 23:42:45
TRACK 05 AUDIO
TITLE "String Quartet No. 2 in C major, Op. 6 - I. Largo - Allegro"
PERFORMER "Four Strings Quartet"
ISRC GBRH61432705
INDEX 00 30:32:43
INDEX 01 30:34:42
TRACK 06 AUDIO
TITLE "String Quartet No. 2 in C major, Op. 6 - II. Andante con tristezza"
PERFORMER "Four Strings Quartet"
ISRC GBRH61432705
INDEX 01 42:38:01
TRACK 07 AUDIO
TITLE "String Quartet No. 2 in C major, Op. 6 - III. Allegro scherzando"
PERFORMER "Four Strings Quartet"
ISRC GBRH61432707
INDEX 01 51:21:14
TRACK 08 AUDIO
TITLE "String Quartet No. 2 in C major, Op. 6 - IV. Allegro"
PERFORMER "Four Strings Quartet"
ISRC GBRH61432708
INDEX 01 60:02:61

Вариант индексной карты (.CUE) с выставленными зазорами

REM GENRE Classical
REM DISCID 58108608
REM COMMENT "ExactAudioCopy v1.0b3"
CATALOG 5901741653270
PERFORMER "Four Strings Quartet"
TITLE "Maliszewski – Chamber works, vol. 1 – Four Strings Quartet"
FILE "Maliszewski – Chamber works, vol. 1 – Four Strings Quartet.flac" WAVE
TRACK 01 AUDIO
TITLE "String Quintet in D minor, Op. 3 - I. Allegro"
PERFORMER "Four Strings Quartet"
ISRC GBRH61432701
INDEX 01 00:00:00
TRACK 02 AUDIO
TITLE "String Quintet in D minor, Op. 3 - II. Andante tranquillo"
PERFORMER "Four Strings Quartet"
ISRC GBRH61432702
INDEX 00 11:08:16
INDEX 01 11:10:04
TRACK 03 AUDIO
TITLE "String Quintet in D minor, Op. 3 - III. Scherzo"
PERFORMER "Four Strings Quartet"
ISRC GBRH61432703
INDEX 01 18:31:02
TRACK 04 AUDIO
TITLE "String Quintet in D minor, Op. 3 - IV. Allegro risoluto"
PERFORMER "Four Strings Quartet"
ISRC GBRH61432704
INDEX 00 23:42:47
INDEX 01 23:43:67
TRACK 05 AUDIO
TITLE "String Quartet No. 2 in C major, Op. 6 - I. Largo - Allegro"
PERFORMER "Four Strings Quartet"
ISRC GBRH61432705
INDEX 00 30:29:11
INDEX 01 30:35:47
TRACK 06 AUDIO
TITLE "String Quartet No. 2 in C major, Op. 6 - II. Andante con tristezza"
PERFORMER "Four Strings Quartet"
ISRC GBRH61432705
INDEX 00 42:37:45
INDEX 01 42:38:67
TRACK 07 AUDIO
TITLE "String Quartet No. 2 in C major, Op. 6 - III. Allegro scherzando"
PERFORMER "Four Strings Quartet"
ISRC GBRH61432707
INDEX 00 51:20:18
INDEX 01 51:22:02
TRACK 08 AUDIO
TITLE "String Quartet No. 2 in C major, Op. 6 - IV. Allegro"
PERFORMER "Four Strings Quartet"
ISRC GBRH61432708
INDEX 01 60:03:51
-Витольд Малишевский. Сочинения для скрипки и фортепиано (Les Explorateurs).



Показать сообщения:    

Текущее время: 06-Дек 22:51

Часовой пояс: UTC + 3


Вы не можете начинать темы
Вы не можете отвечать на сообщения
Вы не можете редактировать свои сообщения
Вы не можете удалять свои сообщения
Вы не можете голосовать в опросах
Вы не можете прикреплять файлы к сообщениям
Вы не можете скачивать файлы