(Classical) Малишевский – Сочинения для скрипки и фортепиано: соната и проч. / Maliszewski – Works for violin & piano: Sonata & Quatre morceaux (Les Explorateurs: Anna Orlik, Jozef Kolinek, Joanna Lawrynowicz) - 2014, FLAC (image+.cue) lossle


 

[Цитировать]

Малишевский – Сочинения для скрипки и фортепиано: соната и проч. / Maliszewski – Works for violin & piano: Sonata & Quatre morceaux (Les Explorateurs)
Жанр: Classical
Страна-производитель диска: ЕС
Год издания диска: 2014
Издатель (лейбл): Acte Préalable
Номер по каталогу: ΑP0285
Дата записи: 2013 г., Варшава.
Аудиокодек: FLAC
Тип рипа: image+.cue
Битрейт аудио: lossless
Продолжительность: 00:59:18
Источник: odeonmusic
Наличие сканов в содержимом раздачи: да
Треклист:-Витольд Осипович Малишевский (1873 — 1939).-Соната G-dur для скрипки и фортепиано, op. 1 (опубл. 1902).
01. I. Allegro cantabile [09:17].
02. II. Adagio molto [09:06].
03. III. Тема с вариациями. Тема. Allegretto. — [01:28].
04. — Вариация I. Allegro scherzando. — [00:47].
05. — Вариация II. Andantino grazioso. — [01:01].
06. — Вариация III. Романс. Andante cantabile. — [02:28].
07. — Вариация IV. Allegro. — [01:21].
08. — Вариация V. Allegro grave. — [02:06].
09. — Вариация VI. Колыбельная. Andante. — Più mosso. — [03:29].
10. — Вариация VII. Finale. Карнавал. Allegro giocoso [06:18].
Четыре пьесы для виолончели с фортепиано [?], op. 20 (до 1923).
11. № 1 D-dur. Вступление (Intrada). Ария, версия для скрипки с фортепиано [04:16].
12. № 2 G-dur. Серенада, версия для скрипки с фортепиано [05:55].
13. № 3 B-dur. Романс, переложение для скрипки с фортепиано [07:54].
14. № 4 G-dur. Вальс, переложение для скрипки с фортепиано [03:44].-Исполнители:
Les Explorateurs:
Anna Orlik (скрипка, 1 — 13),
Józef Kolinek (скрипка, 14),
Joanna Ławrynowicz (фортепиано).-

Лог создания рипа

Exact Audio Copy V1.0 beta 3 from 29. August 2011
EAC extraction logfile from 5. November 2014, 11:16
Les Explorateurs / Witold Maliszewski - Works for Violin and Piano - Les Explorateurs
Used drive : TSSTcorpCDDVDW SH-222BB Adapter: 2 ID: 1
Read mode : Secure
Utilize accurate stream : Yes
Defeat audio cache : Yes
Make use of C2 pointers : No
Read offset correction : 6
Overread into Lead-In and Lead-Out : No
Fill up missing offset samples with silence : Yes
Delete leading and trailing silent blocks : No
Null samples used in CRC calculations : Yes
Used interface : Native Win32 interface for Win NT & 2000
Used output format : User Defined Encoder
Selected bitrate : 896 kBit/s
Quality : High
Add ID3 tag : No
Command line compressor : C:\Program Files\Exact Audio Copy\FLAC\FLAC.EXE
Additional command line options : -8 -V -T "TITLE=%title%" -T "ARTIST=%artist%" -T "ALBUMARTIST=%albumartist%" -T "ALBUM=%albumtitle%" -T "DATE=%year%" -T "TRACKNUMBER=%tracknr%" -T "TRACKTOTAL=%numtracks%" -T "GENRE=%genre%" -T "COMMENT=%comment%" -T "PERFORMER=%albuminterpret%" -T "COMPOSER=%composer%" %source% -o %dest%
TOC of the extracted CD
Track | Start | Length | Start sector | End sector
---------------------------------------------------------
1 | 0:00.00 | 9:17.66 | 0 | 41840
2 | 9:17.66 | 9:06.62 | 41841 | 82852
3 | 18:24.53 | 1:28.22 | 82853 | 89474
4 | 19:53.00 | 0:47.27 | 89475 | 93026
5 | 20:40.27 | 1:01.34 | 93027 | 97635
6 | 21:41.61 | 2:28.64 | 97636 | 108799
7 | 24:10.50 | 1:21.51 | 108800 | 114925
8 | 25:32.26 | 2:06.01 | 114926 | 124376
9 | 27:38.27 | 3:29.18 | 124377 | 140069
10 | 31:07.45 | 6:18.49 | 140070 | 168468
11 | 37:26.19 | 4:16.69 | 168469 | 187737
12 | 41:43.13 | 5:55.68 | 187738 | 214430
13 | 47:39.06 | 7:54.42 | 214431 | 250022
14 | 55:33.48 | 3:44.46 | 250023 | 266868
Range status and errors
Selected range
Filename G:\Ripped general\[7692] Witold Maliszewski – Works for Violin and Piano – Les Explorateurs\Witold Maliszewski - Works for Violin and Piano - Les Explorateurs.wav
Peak level 97.1 %
Extraction speed 6.5 X
Range quality 100.0 %
Test CRC 01D6F2C7
Copy CRC 01D6F2C7
Copy OK
No errors occurred
AccurateRip summary
Track 1 not present in database
Track 2 not present in database
Track 3 not present in database
Track 4 not present in database
Track 5 not present in database
Track 6 not present in database
Track 7 not present in database
Track 8 not present in database
Track 9 not present in database
Track 10 not present in database
Track 11 not present in database
Track 12 not present in database
Track 13 not present in database
Track 14 not present in database
None of the tracks are present in the AccurateRip database
End of status report
==== Log checksum A1295F275E13E6186A60317A5B76A7CE8BAC733371C1E9553A72FA6C09B141BF ====

Содержание индексной карты (.CUE)

REM GENRE Classical
REM DISCID B60DE60E
REM COMMENT "ExactAudioCopy v1.0b3"
CATALOG 5901741652853
PERFORMER "Les Explorateurs"
TITLE "Maliszewski – Works for violin & piano – Les Explorateurs"
FILE "Maliszewski – Works for violin & piano – Les Explorateurs.flac" WAVE
TRACK 01 AUDIO
TITLE "Sonata for violin & piano in G major, Op. 1 - I. Allegro cantabile"
PERFORMER "Les Explorateurs"
ISRC GBRH61428501
INDEX 01 00:00:00
TRACK 02 AUDIO
TITLE "Sonata for violin & piano in G major, Op. 1 - II. Adagio molto"
PERFORMER "Les Explorateurs"
ISRC GBRH61428502
INDEX 01 09:17:66
TRACK 03 AUDIO
TITLE "Sonata for violin & piano in G major, Op. 1 - III. Tema con variazioni - Tema. Allegretto -"
PERFORMER "Les Explorateurs"
ISRC GBRH61428503
INDEX 01 18:24:53
TRACK 04 AUDIO
TITLE "Sonata for violin & piano in G major, Op. 1 - III. Tema con variazioni - Var. I. Allegro scherzando -"
PERFORMER "Les Explorateurs"
ISRC GBRH61428504
INDEX 01 19:53:00
TRACK 05 AUDIO
TITLE "Sonata for violin & piano in G major, Op. 1 - III. Tema con variazioni - Var. II. Andantino grazioso -"
PERFORMER "Les Explorateurs"
ISRC GBRH61428505
INDEX 01 20:40:27
TRACK 06 AUDIO
TITLE "Sonata for violin & piano in G major, Op. 1 - III. Tema con variazioni - Var. III. Romance. Andante cantabile -"
PERFORMER "Les Explorateurs"
ISRC GBRH61428506
INDEX 01 21:41:61
TRACK 07 AUDIO
TITLE "Sonata for violin & piano in G major, Op. 1 - III. Tema con variazioni - Var. IV. Allegro -"
PERFORMER "Les Explorateurs"
ISRC GBRH61428506
INDEX 01 24:10:50
TRACK 08 AUDIO
TITLE "Sonata for violin & piano in G major, Op. 1 - III. Tema con variazioni - Var. V. Allegro grave -"
PERFORMER "Les Explorateurs"
ISRC GBRH61428508
INDEX 01 25:32:26
TRACK 09 AUDIO
TITLE "Sonata for violin & piano in G major, Op. 1 - III. Tema con variazioni - Var. VI. Berceuse. Andante -"
PERFORMER "Les Explorateurs"
ISRC GBRH61428509
INDEX 01 27:38:27
TRACK 10 AUDIO
TITLE "Sonata for violin & piano in G major, Op. 1 - III. Tema con variazioni - Var. VII. Finale. Carnaval. Allegro giocoso"
PERFORMER "Les Explorateurs"
ISRC GBRH61428510
INDEX 01 31:07:45
TRACK 11 AUDIO
TITLE "Quatre morceaux for violin & piano, Op. 20 - I. Intrada (Air)"
PERFORMER "Les Explorateurs"
ISRC GBRH61428511
INDEX 00 37:21:20
INDEX 01 37:26:19
TRACK 12 AUDIO
TITLE "Quatre morceaux for violin & piano, Op. 20 - II. Serenade"
PERFORMER "Les Explorateurs"
ISRC GBRH61428512
INDEX 01 41:43:13
TRACK 13 AUDIO
TITLE "Quatre morceaux for violin & piano, Op. 20 - III. Romance"
PERFORMER "Les Explorateurs"
ISRC GBRH61428513
INDEX 01 47:39:06
TRACK 14 AUDIO
TITLE "Quatre morceaux for violin & piano, Op. 20 - IV. Valse"
PERFORMER "Les Explorateurs"
ISRC GBRH61428514
INDEX 01 55:33:48

Вариант индексной карты (.CUE) с выставленными зазорами

REM GENRE Classical
REM DISCID B60DE60E
REM COMMENT "ExactAudioCopy v1.0b3"
CATALOG 5901741652853
PERFORMER "Les Explorateurs"
TITLE "Maliszewski – Works for violin & piano – Les Explorateurs"
FILE "Maliszewski – Works for violin & piano – Les Explorateurs.flac" WAVE
TRACK 01 AUDIO
TITLE "Sonata for violin & piano in G major, Op. 1 - I. Allegro cantabile"
PERFORMER "Les Explorateurs"
ISRC GBRH61428501
INDEX 00 00:00:00
INDEX 01 00:00:35
TRACK 02 AUDIO
TITLE "Sonata for violin & piano in G major, Op. 1 - II. Adagio molto"
PERFORMER "Les Explorateurs"
ISRC GBRH61428502
INDEX 00 09:16:24
INDEX 01 09:19:54
TRACK 03 AUDIO
TITLE "Sonata for violin & piano in G major, Op. 1 - III. Tema con variazioni - Tema. Allegretto -"
PERFORMER "Les Explorateurs"
ISRC GBRH61428503
INDEX 00 18:24:34
INDEX 01 18:25:72
TRACK 04 AUDIO
TITLE "Sonata for violin & piano in G major, Op. 1 - III. Tema con variazioni - Var. I. Allegro scherzando -"
PERFORMER "Les Explorateurs"
ISRC GBRH61428504
INDEX 01 19:53:44
TRACK 05 AUDIO
TITLE "Sonata for violin & piano in G major, Op. 1 - III. Tema con variazioni - Var. II. Andantino grazioso -"
PERFORMER "Les Explorateurs"
ISRC GBRH61428505
INDEX 01 20:41:12
TRACK 06 AUDIO
TITLE "Sonata for violin & piano in G major, Op. 1 - III. Tema con variazioni - Var. III. Romance. Andante cantabile -"
PERFORMER "Les Explorateurs"
ISRC GBRH61428506
INDEX 01 21:42:07
TRACK 07 AUDIO
TITLE "Sonata for violin & piano in G major, Op. 1 - III. Tema con variazioni - Var. IV. Allegro -"
PERFORMER "Les Explorateurs"
ISRC GBRH61428506
INDEX 01 24:10:68
TRACK 08 AUDIO
TITLE "Sonata for violin & piano in G major, Op. 1 - III. Tema con variazioni - Var. V. Allegro grave -"
PERFORMER "Les Explorateurs"
ISRC GBRH61428508
INDEX 01 25:32:64
TRACK 09 AUDIO
TITLE "Sonata for violin & piano in G major, Op. 1 - III. Tema con variazioni - Var. VI. Berceuse. Andante -"
PERFORMER "Les Explorateurs"
ISRC GBRH61428509
INDEX 01 27:38:57
TRACK 10 AUDIO
TITLE "Sonata for violin & piano in G major, Op. 1 - III. Tema con variazioni - Var. VII. Finale. Carnaval. Allegro giocoso"
PERFORMER "Les Explorateurs"
ISRC GBRH61428510
INDEX 01 31:07:55
TRACK 11 AUDIO
TITLE "Quatre morceaux for violin & piano, Op. 20 - I. Intrada (Air)"
PERFORMER "Les Explorateurs"
ISRC GBRH61428511
INDEX 00 37:18:74
INDEX 01 37:27:74
TRACK 12 AUDIO
TITLE "Quatre morceaux for violin & piano, Op. 20 - II. Serenade"
PERFORMER "Les Explorateurs"
ISRC GBRH61428512
INDEX 00 41:42:08
INDEX 01 41:44:15
TRACK 13 AUDIO
TITLE "Quatre morceaux for violin & piano, Op. 20 - III. Romance"
PERFORMER "Les Explorateurs"
ISRC GBRH61428513
INDEX 00 47:38:05
INDEX 01 47:40:24
TRACK 14 AUDIO
TITLE "Quatre morceaux for violin & piano, Op. 20 - IV. Valse"
PERFORMER "Les Explorateurs"
ISRC GBRH61428514
INDEX 00 55:31:09
INDEX 01 55:34:28
-Витольд Малишевский. Струнный квартет № 2. Струнный квинтет (Four Strings Quartet, Wojciech Fudala).



Показать сообщения:    

Текущее время: 06-Дек 22:57

Часовой пояс: UTC + 3


Вы не можете начинать темы
Вы не можете отвечать на сообщения
Вы не можете редактировать свои сообщения
Вы не можете удалять свои сообщения
Вы не можете голосовать в опросах
Вы не можете прикреплять файлы к сообщениям
Вы не можете скачивать файлы